2 сезон

iTunes

MVO

1

2 сезон

iTunes

iTunes

1 сезон

RePack

30

Ultimate

ВАЖНО

ИГРА 18+

pack

RePack

MK11
pack

Легкие деньги

RePack

jed

RePack

fifa19

RePack

RDR2

RePack

NEED FOR SPEED™ PAYBACK

4 сезон

9 сезон

Бесстыжие 9 сезон

Все сериалы

все сериалы на PB.wtf

RePack

FAR CRY 5

Anonymous, доброй ночи, мы не успеваем собрать деньги на оплату серверов за декабрь и январь, помогите нам пожалуйста в это трудное время. В качестве благодарности мы отключим Вам всю рекламу на сайте (укажите свой ник в строку Ваше имя)!

×
  
Magnet ссылка

Душа / Soul (Пит Доктер, Кемп Пауэрс) [2020 г., Мультфильм, фэнтези, комедия, приключения, семейный, музыка, WEB-DL 1080p] [MVO] (HDrezka Studio) piratbit.org

Душа через торрент piratbit.org

Раздают: 66 [ 5 MB/s ] Качают: 1 [ 573 KB/s ]
Размер: 5.56 GB | Добавлен: 4 д. назад | Торрент скачан:514 раз
Скачать  

12-01-2021 14:48 Душа Скачать торрент  

Душа / Soul
Год выпуска: 2020
Страна: США
Жанр: мультфильм, фэнтези, комедия, приключения
Продолжительность: 01:40:31
Перевод: Профессиональный (многоголосый) [HDrezka Studio]
Субтитры: Russian (Forced, Full |FOCS|), Ukrainian, English (SDH)

Режиссер: Пит Доктер, Кемп Пауэрс

В ролях: Джейми Фокс, Тина Фей, Филисия Рашад, Давид Диггс, Анджела Бассетт, Грэм Нортон, Рэйчел Хаус, Алиси Брага, Ричард Айоади, Доннел Роулингс

Описание: Школьный учитель музыки Джо Гарднер случайно попадает в мир, где зарождаются человеческие увлечения, мечты и интересы, и там он знакомится с молодой душой по имени 22.

rating

Качество видео: WEB-DL 1080p
Формат видео: MKV
Видео: AVC, 1920x1080 (16:9), 23.976 fps, 6 700 Kbps (0.135 bit/pixel)
Аудио #1: 48 kHz, AC3 Dolby Digital, 3/2 (L,C,R,l,r) + LFE ch, 448 kbps Russian | HDrezka Studio
Аудио #2: 48 kHz, E-AC-3, 3/2 (L,C,R,l,r) + LFE ch, 768 kbps English | Original
Формат субтитров: softsub (SRT)
скриншот   скриншот   скриншот  
Soul.2020.MVO.1080p.WEB-DL.MegaPeer.mkv
Format : Matroska
Format version : Version 4 / Version 2
File size : 5.56 GiB
Duration : 1h 40mn
Overall bit rate mode : Variable
Overall bit rate : 7 919 Kbps
Movie name : Душа / Soul (2020) от MegaPeer
Encoded date : UTC 2021-01-12 06:43:41
Writing application : mkvmerge v47.0.0 ('Black Flag') 64-bit
Writing library : libebml v1.3.10 + libmatroska v1.5.2
Cover : Yes
Attachments : cover.jpg

Video
ID : 1
Format : AVC
Format/Info : Advanced Video Codec
Format profile : High@L4
Format settings, CABAC : Yes
Format settings, ReFrames : 4 frames
Codec ID : V_MPEG4/ISO/AVC
Duration : 1h 40mn
Bit rate mode : Variable
Bit rate : 6 700 Kbps
Maximum bit rate : 12.7 Mbps
Width : 1 920 pixels
Height : 1 080 pixels
Display aspect ratio : 16:9
Frame rate mode : Constant
Frame rate : 23.976 (24000/1001) fps
Color space : YUV
Chroma subsampling : 4:2:0
Bit depth : 8 bits
Scan type : Progressive
Bits/(Pixel*Frame) : 0.135
Stream size : 4.70 GiB (85%)
Language : English
Default : Yes
Forced : No
Color range : Limited
Color primaries : BT.709
Transfer characteristics : BT.709
Matrix coefficients : BT.709

Audio #1
ID : 2
Format : AC-3
Format/Info : Audio Coding 3
Mode extension : CM (complete main)
Format settings, Endianness : Big
Codec ID : A_AC3
Duration : 1h 40mn
Bit rate mode : Constant
Bit rate : 448 Kbps
Channel(s) : 6 channels
Channel positions : Front: L C R, Side: L R, LFE
Sampling rate : 48.0 KHz
Frame rate : 31.250 fps (1536 spf)
Compression mode : Lossy
Stream size : 322 MiB (6%)
Title : MVO | HDRezka Studio
Language : Russian
Default : Yes
Forced : No

Audio #2
ID : 3
Format : E-AC-3
Format/Info : Audio Coding 3
Format settings, Endianness : Big
Codec ID : A_EAC3
Duration : 1h 40mn
Bit rate mode : Constant
Bit rate : 768 Kbps
Channel(s) : 6 channels
Channel positions : Front: L C R, Side: L R, LFE
Sampling rate : 48.0 KHz
Frame rate : 187.500 fps (256 spf)
Compression mode : Lossy
Stream size : 552 MiB (10%)
Language : English
Default : No
Forced : No

Text #1
ID : 4
Format : UTF-8
Codec ID : S_TEXT/UTF8
Codec ID/Info : UTF-8 Plain Text
Duration : 1h 9mn
Bit rate : 1 bps
Count of elements : 22
Stream size : 1 016 Bytes (0%)
Title : Forced
Language : Russian
Default : Yes
Forced : Yes

Text #2
ID : 5
Format : UTF-8
Codec ID : S_TEXT/UTF8
Codec ID/Info : UTF-8 Plain Text
Duration : 1h 40mn
Bit rate : 110 bps
Count of elements : 1546
Stream size : 81.2 KiB (0%)
Title : Full (FOCS)
Language : Russian
Default : No
Forced : No

Text #3
ID : 6
Format : UTF-8
Codec ID : S_TEXT/UTF8
Codec ID/Info : UTF-8 Plain Text
Duration : 1h 39mn
Bit rate : 119 bps
Count of elements : 1599
Stream size : 87.4 KiB (0%)
Title : Full
Language : Ukrainian
Default : No
Forced : No

Text #4
ID : 7
Format : UTF-8
Codec ID : S_TEXT/UTF8
Codec ID/Info : UTF-8 Plain Text
Duration : 1h 40mn
Bit rate : 78 bps
Count of elements : 1857
Stream size : 57.7 KiB (0%)
Title : SDH
Language : English
Default : No
Forced : No
piratbit.org



Скачать Душа через торрент https://i114.fastpic.ru/big/2021/0110/c6/348def749e17282320e33f9c8085b1c6.jpg Скачать фильм Душа через торрент бесплантно в хорошем качестве Описание: Школьный учитель музыки Джо Гарднер случайно попадает в мир, где зарождаются человеческие увлечения, мечты и интересы, и там он ... 10 10 14
Info! Золотая раздача, скачанное не засчитывается.
Торрент: Зарегистрирован [2021-01-12 14:48] · скачан: 514 раз
Статус: √ проверено
Размер: 5.56 GB
Как cкачать? Как скачать Душа через торрент | UTorrent

% Раздел Тема Автор DL S | L
Фильмы с украинским озвучиванием [ 5.38 GB ] Душа / Soul [2020 мультфильм WEB-DL 1080p] [Ukr DUB] killermax2013 Скачать
5 | 0
Фильмы без перевода [ 1.46 GB ] Душа / Soul [2020 мультфильм WEB-DLRip] 3x [Sub] killermax2013 Скачать
2 | 0
Фильмы 2019-2020 [DVDrip, WEB-DLRip, HDrip] (DUB, MVO) [ 1.42 GB ] Храни мою душу / My Soul to Keep [2019 WEB-DLRip] MVO [SDI Media] bober100 Скачать
1 | 0
Фильмы 2019-2020 [DVDrip, WEB-DLRip, HDrip] (DUB, MVO) [ 1.42 GB ] Отдай свою душу / 8: A South African Horror Story / The Soul Collector [2019 BDRip] - Twi7ter Скачать
8 | 0
Фильмы [HD 720p, 1080p] (Хороший звук DUB, MVO) [ 4.86 GB ] Отдай свою душу / 8: A South African Horror Story / The Soul Collector [2019 BDRip 720p] [US Transfer] bober100 Скачать
2 | 0
Фильмы (WEB-DL 720p, 1080p) [ 3.29 GB ] Храни мою душу / My Soul to Keep [2019 WEB-DL 1080p] MVO [SDI Media] bober100 Скачать
1 | 0
Фильмы 2019-2020 [DVDrip, WEB-DLRip, HDrip] (DUB, MVO) [ 1.45 GB ] Отдай свою душу / 8: A South African Horror Story / The Soul Collector [2019 BDRip-AVC] [ | US Transfer] от MediaBit Lithuania Скачать
1 | 0

28-11-2019 20:33  

Отключить всю рекламу на сайте

13-01-2021 12:27 Душа Скачать торрент  

Детям можно показывать? диснейевской гомосятины нет?piratbit.org
Kkillermax2013 писал(а):

Можно смело.Мульт хороший



13-01-2021 19:04 Душа Скачать торрент  

Отличный мультфильм, посмотрели всей семьей. Очень необычная тема с фирменным стилем "головоломки". Лучший мультфильм за 2020-начало 2021.piratbit.org



14-01-2021 17:56 Душа Скачать торрент  

что по звуку?piratbit.org



    Дорогой пользователь! Огромная просьба, поблагодарите релизера, оцените раздачу и оставьте свои комментарий, если Вы скачали Душа через торрент бесплатно! Внесите свою лепту в развитие PiratBit!
    Комментировать посты могут только пользователи прошедшие не сложную регистрацию
    Показать сообщения:    

    Душа через торрент
    Скачать бесплатно Душа
    Душа скачать торрент
    Душа смотреть онлайн
    Cкачать фильм Душа бесплатно
    Душа скачать торрент в хорошем качестве
    Душа смотреть онлайн бесплатно в хорошем качестве


    Вы не можете начинать темы
    Вы не можете отвечать на сообщения
    Вы не можете редактировать свои сообщения
    Вы не можете удалять свои сообщения
    Вы не можете голосовать в опросах
    Вы не можете прикреплять файлы к сообщениям
    Вы можете скачивать файлы