2 сезон

iTunes

MVO

1

2 сезон

iTunes

iTunes

1 сезон

RePack

30

Новинка

ВАЖНО

ИГРА 18+

pack

RePack

MK11
pack

Легкие деньги

RePack

jed

RePack

fifa19

RePack

RDR2

RePack

NEED FOR SPEED™ PAYBACK

4 сезон

9 сезон

Бесстыжие 9 сезон

Все сериалы

все сериалы на PB.wtf

RePack

FAR CRY 5

Anonymous, добрый вечер, мы не успеваем собрать деньги на оплату серверов за декабрь и январь, помогите нам пожалуйста в это трудное время. В качестве благодарности мы отключим Вам всю рекламу на сайте (укажите свой ник в строку Ваше имя)!

×
  
Magnet ссылка

Мужчина и женщина: Лучшие годы / Les plus belles années d'une vie / The Best Years of a Life (Клод Лелуш) [2019, Драма, BDRip 1080p] DUB [iTunes] piratbit.org

Мужчина и женщина: Лучшие годы через торрент piratbit.org

Раздают: 3 [ 469 KB/s ]
Размер: 13 GB | Добавлен: 12 д. назад | Торрент скачан:25 раз
Скачать  

12-01-2021 15:30 Мужчина и женщина: Лучшие годы Скачать торрент  

Мужчина и женщина: Лучшие годы
Les plus belles années d'une vie | The Best Years of a Life

Год выпуска: 2019
Страна: Франция
Студия: Davis-Films, France 2 Cinéma, France Télévision, Les Films 13, SofiTVciné 6
Жанр: Драма
Продолжительность: 01:30:32
Перевод: Дублированный | iTunes
Субтитры: Английские

Режиссер: Клод Лелуш

rating

В ролях: Жан-Луи Трентиньян, Анук Эме, Суад Амиду, Антуан Сир, Марианн Деникур, Моника Беллуччи, Тесс Ловернь, Лорен Прудом, Жан-Ив Крессенвиль, Бернар Варна

Описание: История великой любви возвращается. Спустя много лет Жан-Луи и Анна снова встретятся, чтобы погрузиться в прошлое и вспомнить лучшие годы своей жизни. Неожиданно сильное и волнующее чувство вырвет героев из холодных оков одиночества.

Качество: BDRip 1080p
Формат: MKV

Видео: MPEG-4 AVC, 1920x804, 19.5 Mbit/s, 23.976 fps
Аудио#1: 48 kHz, AC3, 5.1, 384 Kbps | iTunes | RUS |
Аудио#2: 48 kHz, AC3, 5.1, 640 Kbps | Оригинал | FRE |
скриншот  скриншот  скриншот  скриншот  скриншот  

General
Unique ID : 130138821358728576538197616510598551293 (0x61E7D346BE3A25305E0FF89F942296FD)
Complete name : E:VideoFirstLes.Plus.Belles.Annees.D.Une.Vie.2019.BDRip.1080p.seleZen.mkv
Format : Matroska
Format version : Version 4
File size : 13.0 GiB
Duration : 1 h 30 min
Overall bit rate : 20.6 Mb/s
Movie name : Les Plus Belles Annees D Une Vie 2019 from seleZen
Encoded date : UTC 2021-01-12 04:42:39
Writing application : mkvmerge v40.0.0 ('Old Town Road + Pony') 64-bit
Writing library : libebml v1.3.9 + libmatroska v1.5.2

Video
ID : 1
Format : AVC
Format/Info : Advanced Video Codec
Format profile : High@L4.1
Format settings : CABAC / 4 Ref Frames
Format settings, CABAC : Yes
Format settings, Reference : 4 frames
Codec ID : V_MPEG4/ISO/AVC
Duration : 1 h 30 min
Bit rate : 19.5 Mb/s
Width : 1 920 pixels
Height : 804 pixels
Display aspect ratio : 2.40:1
Frame rate mode : Constant
Frame rate : 23.976 (24000/1001) FPS
Color space : YUV
Chroma subsampling : 4:2:0
Bit depth : 8 bits
Scan type : Progressive
Bits/(Pixel*Frame) : 0.528
Stream size : 12.4 GiB (95%)
Title : SbR
Writing library : x264 core 152 r2851kMod ba24899
Encoding settings : cabac=1 / ref=4 / deblock=1:-3:-3 / analyse=0x3:0x133 / me=umh / subme=11 / psy=1 / fade_compensate=0.00 / psy_rd=1.00:0.00 / mixed_ref=1 / me_range=32 / chroma_me=1 / trellis=2 / 8x8dct=1 / cqm=0 / deadzone=21,11 / fast_pskip=1 / chroma_qp_offset=-2 / threads=25 / lookahead_threads=6 / sliced_threads=0 / nr=0 / decimate=1 / interlaced=0 / bluray_compat=0 / constrained_intra=0 / bframes=10 / b_pyramid=2 / b_adapt=2 / b_bias=0 / direct=3 / weightb=1 / open_gop=0 / weightp=2 / keyint=250 / keyint_min=23 / scenecut=40 / intra_refresh=0 / rc=crf / mbtree=0 / crf=16.0000 / qcomp=0.65 / qpmin=0 / qpmax=69 / qpstep=4 / ip_ratio=1.25 / pb_ratio=1.20 / aq=1:0.60
Language : French
Default : Yes
Forced : No

Audio #1
ID : 2
Format : AC-3
Format/Info : Audio Coding 3
Commercial name : Dolby Digital
Codec ID : A_AC3
Duration : 1 h 30 min
Bit rate mode : Constant
Bit rate : 384 kb/s
Channel(s) : 6 channels
Channel layout : L R C LFE Ls Rs
Sampling rate : 48.0 kHz
Frame rate : 31.250 FPS (1536 SPF)
Compression mode : Lossy
Stream size : 249 MiB (2%)
Title : iTunes
Language : Russian
Service kind : Complete Main
Default : Yes
Forced : Yes

Audio #2
ID : 3
Format : AC-3
Format/Info : Audio Coding 3
Commercial name : Dolby Digital
Codec ID : A_AC3
Duration : 1 h 30 min
Bit rate mode : Constant
Bit rate : 640 kb/s
Channel(s) : 6 channels
Channel layout : L R C LFE Ls Rs
Sampling rate : 48.0 kHz
Frame rate : 31.250 FPS (1536 SPF)
Compression mode : Lossy
Stream size : 414 MiB (3%)
Title : Original
Language : French
Service kind : Complete Main
Default : No
Forced : No

Text
ID : 4
Format : UTF-8
Codec ID : S_TEXT/UTF8
Codec ID/Info : UTF-8 Plain Text
Duration : 1 h 29 min
Bit rate : 49 b/s
Count of elements : 1244
Stream size : 32.4 KiB (0%)
Language : English
Default : No
Forced : No

Menu
00:00:00.000 : fr:Chapitre 01
00:08:45.734 : fr:Chapitre 02
00:15:22.338 : fr:Chapitre 03
00:24:30.302 : fr:Chapitre 04
00:32:26.570 : fr:Chapitre 05
00:39:33.496 : fr:Chapitre 06
00:45:18.716 : fr:Chapitre 07
00:51:58.240 : fr:Chapitre 08
01:00:44.099 : fr:Chapitre 09
01:07:22.664 : fr:Chapitre 10
01:15:55.718 : fr:Chapitre 11
01:26:14.795 : fr:Chapitre 12

piratbit.org



Скачать Мужчина и женщина: Лучшие годы через торрент https://a.radikal.ru/a10/2101/b7/ce0805fd8d3e.jpg Скачать фильм Мужчина и женщина: Лучшие годы через торрент бесплантно в хорошем качестве Описание: История великой любви возвращается. Спустя много лет Жан-Луи и Анна снова встретятся, чтобы погрузиться в прошлое и вспомнить ... 9.5 10 4
Торрент: Зарегистрирован [2021-01-12 15:30] · скачан: 25 раз
Статус: √ проверено
Размер: 13 GB
Как cкачать? Как скачать Мужчина и женщина: Лучшие годы через торрент | UTorrent

28-11-2019 20:33  

Отключить всю рекламу на сайте

    Дорогой пользователь! Огромная просьба, поблагодарите релизера, оцените раздачу и оставьте свои комментарий, если Вы скачали Мужчина и женщина: Лучшие годы через торрент бесплатно! Внесите свою лепту в развитие PiratBit!
    Комментировать посты могут только пользователи прошедшие не сложную регистрацию
    Показать сообщения:    

    Мужчина и женщина: Лучшие годы через торрент
    Скачать бесплатно Мужчина и женщина: Лучшие годы
    Мужчина и женщина: Лучшие годы скачать торрент
    Мужчина и женщина: Лучшие годы смотреть онлайн
    Cкачать фильм Мужчина и женщина: Лучшие годы бесплатно
    Мужчина и женщина: Лучшие годы скачать торрент в хорошем качестве
    Мужчина и женщина: Лучшие годы смотреть онлайн бесплатно в хорошем качестве


    Вы не можете начинать темы
    Вы не можете отвечать на сообщения
    Вы не можете редактировать свои сообщения
    Вы не можете удалять свои сообщения
    Вы не можете голосовать в опросах
    Вы не можете прикреплять файлы к сообщениям
    Вы можете скачивать файлы