2 сезон

iTunes

MVO

1

2 сезон

iTunes

iTunes

1 сезон

RePack

30

Новинка

ВАЖНО

ИГРА 18+

pack

RePack

MK11
pack

Легкие деньги

RePack

jed

RePack

fifa19

RePack

RDR2

RePack

NEED FOR SPEED™ PAYBACK

4 сезон

9 сезон

Бесстыжие 9 сезон

Все сериалы

все сериалы на PB.wtf

RePack

FAR CRY 5

Anonymous, доброй ночи, мы не успеваем собрать деньги на оплату серверов за декабрь и январь, помогите нам пожалуйста в это трудное время. В качестве благодарности мы отключим Вам всю рекламу на сайте (укажите свой ник в строку Ваше имя)!

×
  
Magnet ссылка

Джиу-джитсу: Битва за Землю / Jiu Jitsu (Димитри Логотетис) [2020, Боевик, фантастика, боевые искусства, HDRip-AVC] [DUB] [iTunes] от MediaBit piratbit.org

Джиу-джитсу: Битва за Землю через торрент piratbit.org

Раздают: 6 [ 7 KB/s ]
Размер: 2.05 GB | Добавлен: 4 д. назад | Торрент скачан:49 раз
Скачать  

12-01-2021 20:34 Джиу-джитсу: Битва за Землю Скачать торрент  


Джиу-джитсу: Битва за Землю / Jiu Jitsu
Информация о фильме:
Название: Джиу-джитсу: Битва за Землю
Оригинальное название: Jiu Jitsu
Год выхода: 2020
Жанр: Боевик, фантастика, боевые искусства
Режиссер: Димитри Логотетис

В ролях: Николас Кейдж, Мари Авгеропулос, Фрэнк Грилло, Тони Джа, Рик Юн, Жужу Чан, Ален Мусси, Эдди Стиплз, Маррезе Крамп, Том Уокер

Описание: Каждые шесть лет древний орден мастеров джиу-джитсу сражается за Землю с расой безжалостных пришельцев из космоса. Так было тысячи лет, пока ветеран Джейк Барнс не потерпел поражение, и безопасность человечества оказалась под угрозой. Побитого и потерявшего сознание Джейка находят Уайли, Кюн и Харриган. Вместе они должны помочь Джейку набраться сил и остановить пришельца Бракса.



Страна: США
Студия: Acme Rocket Fuel, Green Olive Films
Продолжительность: 01:42:07
Перевод: Дублированный - iTunes



Информация о файле:
Кодек: AVC
Формат: MKV
Качество: HDRip-AVC
Видео: MPEG-4 AVC, 1024x428, 23.976 fps, 2040 kbps
Аудио RU: 48 kHz, AC3, 5.1, 384 Kbps
Аудио EN: 48 kHz, AC3, 5.1, 448 Kbps
Субтитры: Русские (Full), английские
Навигация по главам: Да

x264 info: frame I:1025 Avg QP:15.56 size: 62866
x264 info: frame P:40483 Avg QP:19.82 size: 20398
x264 info: frame B:105393 Avg QP:21.40 size: 6368
x264 info: consecutive B-frames: 6.2% 7.2% 12.4% 21.0% 16.1% 27.5% 5.4% 2.0% 1.6% 0.1% 0.1% 0.1% 0.2%
General
Unique ID : 42273872761686688562263562673577269822 (0x1FCDA6D88B30BF2B8ED7650DCC281A3E)
Complete name : D:uTorrentРипы_от_wolf1245_MediaBitJiu Jitsu.2020.iTunes.2.05Gb.HDRip-AVC_wolf1245_MediaBit.mkv
Format : Matroska
Format version : Version 4
File size : 2.05 GiB
Duration : 1 h 42 min
Overall bit rate : 2 873 kb/s
Movie name : Jiu Jitsu.2020.iTunes.2.05Gb.HDRip-AVC_wolf1245_MediaBit
Encoded date : UTC 2021-01-12 20:25:19
Writing application : mkvmerge v52.0.0 ('Secret For The Mad') 64-bit
Writing library : libebml v1.4.1 + libmatroska v1.6.2
Video
ID : 1
Format : AVC
Format/Info : Advanced Video Codec
Format profile : High@L4.1
Format settings : CABAC / 12 Ref Frames
Format settings, CABAC : Yes
Format settings, Reference frames : 12 frames
Codec ID : V_MPEG4/ISO/AVC
Duration : 1 h 42 min
Bit rate : 2 040 kb/s
Width : 1 024 pixels
Height : 428 pixels
Display aspect ratio : 2.40:1
Frame rate mode : Constant
Frame rate : 23.976 (24000/1001) FPS
Color space : YUV
Chroma subsampling : 4:2:0
Bit depth : 8 bits
Scan type : Progressive
Bits/(Pixel*Frame) : 0.194
Stream size : 1.45 GiB (71%)
Title : _wolf1245_MediaBit
Writing library : x264 core 157 r2958 57baac4
Encoding settings : cabac=1 / ref=12 / deblock=1:-3:-2 / analyse=0x3:0x133 / me=umh / subme=11 / psy=1 / psy_rd=1.05:0.05 / mixed_ref=1 / me_range=48 / chroma_me=1 / trellis=2 / 8x8dct=1 / cqm=0 / deadzone=21,11 / fast_pskip=0 / chroma_qp_offset=-3 / threads=10 / lookahead_threads=2 / sliced_threads=0 / nr=0 / decimate=0 / interlaced=0 / bluray_compat=0 / constrained_intra=0 / bframes=12 / b_pyramid=2 / b_adapt=2 / b_bias=0 / direct=3 / weightb=1 / open_gop=0 / weightp=2 / keyint=240 / keyint_min=24 / scenecut=40 / intra_refresh=0 / rc_lookahead=100 / rc=2pass / mbtree=0 / bitrate=2040 / ratetol=1.0 / qcomp=0.60 / qpmin=0 / qpmax=69 / qpstep=4 / cplxblur=20.0 / qblur=0.5 / vbv_maxrate=50000 / vbv_bufsize=62500 / nal_hrd=none / filler=0 / ip_ratio=1.40 / pb_ratio=1.30 / aq=3:0.80
Language : English
Default : Yes
Forced : No
Color range : Limited
Color primaries : BT.709
Transfer characteristics : BT.709
Matrix coefficients : BT.709
Audio #1
ID : 2
Format : AC-3
Format/Info : Audio Coding 3
Commercial name : Dolby Digital
Codec ID : A_AC3
Duration : 1 h 42 min
Bit rate mode : Constant
Bit rate : 384 kb/s
Channel(s) : 6 channels
Channel layout : L R C LFE Ls Rs
Sampling rate : 48.0 kHz
Frame rate : 31.250 FPS (1536 SPF)
Compression mode : Lossy
Stream size : 280 MiB (13%)
Title : DUB | iTunes
Language : Russian
Service kind : Complete Main
Default : Yes
Forced : No
Audio #2
ID : 3
Format : AC-3
Format/Info : Audio Coding 3
Commercial name : Dolby Digital
Codec ID : A_AC3
Duration : 1 h 42 min
Bit rate mode : Constant
Bit rate : 448 kb/s
Channel(s) : 6 channels
Channel layout : L R C LFE Ls Rs
Sampling rate : 48.0 kHz
Frame rate : 31.250 FPS (1536 SPF)
Compression mode : Lossy
Stream size : 327 MiB (16%)
Title : Original
Language : English
Service kind : Complete Main
Default : No
Forced : No
Text #1
ID : 4
Format : UTF-8
Codec ID : S_TEXT/UTF8
Codec ID/Info : UTF-8 Plain Text
Duration : 1 h 36 min
Bit rate : 39 b/s
Count of elements : 609
Stream size : 27.7 KiB (0%)
Title : Full
Language : Russian
Default : No
Forced : No
Text #2
ID : 5
Format : UTF-8
Codec ID : S_TEXT/UTF8
Codec ID/Info : UTF-8 Plain Text
Duration : 1 h 30 min
Bit rate : 23 b/s
Count of elements : 595
Stream size : 15.7 KiB (0%)
Title : Full
Language : English
Default : No
Forced : No
Text #3
ID : 6
Format : UTF-8
Codec ID : S_TEXT/UTF8
Codec ID/Info : UTF-8 Plain Text
Duration : 1 h 36 min
Bit rate : 27 b/s
Count of elements : 839
Stream size : 19.1 KiB (0%)
Title : SDH
Language : English
Default : No
Forced : No
Menu
00:00:00.000 : :Chapter 01
00:05:39.881 : :Chapter 02
00:14:15.855 : :Chapter 03
00:25:25.858 : :Chapter 04
00:33:13.158 : :Chapter 05
00:44:36.299 : :Chapter 06
00:53:18.237 : :Chapter 07
01:03:39.190 : :Chapter 08
01:11:08.805 : :Chapter 09
01:24:07.709 : :Chapter 10
01:29:45.589 : :Chapter 11
01:38:03.377 : :Chapter 12
Релиз от: & &
piratbit.org



Скачать Джиу-джитсу: Битва за Землю через торрент https://i114.fastpic.ru/big/2021/0112/cd/1454f28c2969dcfa5bbc444c8a2daecd.jpg Скачать фильм Джиу-джитсу: Битва за Землю через торрент бесплантно в хорошем качестве Описание: Каждые шесть лет древний орден мастеров джиу-джитсу сражается за Землю с расой безжалостных пришельцев из космоса. Так было ... 6.8 10 6
Торрент: Зарегистрирован [2021-01-12 20:34] · скачан: 49 раз
Статус: √ проверено
Размер: 2.05 GB
Как cкачать? Как скачать Джиу-джитсу: Битва за Землю через торрент | UTorrent

28-11-2019 20:33  

Отключить всю рекламу на сайте

    Дорогой пользователь! Огромная просьба, поблагодарите релизера, оцените раздачу и оставьте свои комментарий, если Вы скачали Джиу-джитсу: Битва за Землю через торрент бесплатно! Внесите свою лепту в развитие PiratBit!
    Комментировать посты могут только пользователи прошедшие не сложную регистрацию
    Показать сообщения:    

    Джиу-джитсу: Битва за Землю через торрент
    Скачать бесплатно Джиу-джитсу: Битва за Землю
    Джиу-джитсу: Битва за Землю скачать торрент
    Джиу-джитсу: Битва за Землю смотреть онлайн
    Cкачать фильм Джиу-джитсу: Битва за Землю бесплатно
    Джиу-джитсу: Битва за Землю скачать торрент в хорошем качестве
    Джиу-джитсу: Битва за Землю смотреть онлайн бесплатно в хорошем качестве


    Вы не можете начинать темы
    Вы не можете отвечать на сообщения
    Вы не можете редактировать свои сообщения
    Вы не можете удалять свои сообщения
    Вы не можете голосовать в опросах
    Вы не можете прикреплять файлы к сообщениям
    Вы можете скачивать файлы