2 сезон

iTunes

MVO

1

2 сезон

iTunes

iTunes

1 сезон

RePack

30

Новинка

ВАЖНО

ИГРА 18+

pack

RePack

MK11
pack

Легкие деньги

RePack

jed

RePack

fifa19

RePack

RDR2

RePack

NEED FOR SPEED™ PAYBACK

4 сезон

9 сезон

Бесстыжие 9 сезон

Все сериалы

все сериалы на PB.wtf

RePack

FAR CRY 5

Anonymous, добрый день, мы не успеваем собрать деньги на оплату серверов за декабрь и январь, помогите нам пожалуйста в это трудное время. В качестве благодарности мы отключим Вам всю рекламу на сайте (укажите свой ник в строку Ваше имя)!

×
  
Magnet ссылка

Паутина лжи / Random Hearts (Сидни Поллак) [1988, драма, мелодрама, детектив, BDRip-HEVC 1080p] DUB + MVO + AVO piratbit.org

Паутина лжи через торрент piratbit.org

Раздают: 6 [ 521 KB/s ]
Размер: 11.66 GB | Добавлен: 3 д. назад | Торрент скачан:18 раз
Скачать  

13-01-2021 17:32 Паутина лжи Скачать торрент  

Название: Паутина лжи
Оригинальное название: Random Hearts
Год производства: 1999
Жанр: драма, мелодрама, детектив
Режиссер: Сидни Поллак
В ролях: Харрисон Форд, Кристин Скотт Томас, Чарльз С. Даттон, Бонни Хант, Деннис Хейсбёрт, Сидни Поллак, Ричард Дженкинс, Пол Гилфойл, Сюзанна Томпсон, Питер Койот

О фильме: В результате авиакатастрофы сержант полиции Датч Ван Ден Брок потерял жену, а женщина - конгрессмен Кей Чандлер - мужа. Но эти смерти были лишь первой нитью в непредсказуемом клубке страшных открытий. Вместе с потерпевшим крушение авиалайнером разбились и их жизни, которые оказались искусно сплетённой паутиной лжи. Теперь двое совершенно разных людей, объединённые общей трагедией, приближаются к заветной разгадке...



Страна: США
Студия: Columbia Pictures Corporation, Mirage Enterprises, Rastar Pictures
Продолжительность: 02:12:38
Перевод: дублированный, профессиональный многоголосый, авторский одноголосый

Качество: BDRip-HEVC 1080p
Кодек: HEVC (x265)
Видео: 1920x1038 (1,85:1), 10,5 Мбит/сек, HEVC (Main10@L.4.1@High) 10 бит
Звук:
Аудио1: AC3, 5 ch, 448 Kbps - Русский, Дублированный
Аудио2: AC3, 5 ch, 448 Kbps - Русский, Многоголосый
Аудио3: AC3, 5 ch, 448 Kbps - Русский, Авторский (Юрий Живов)
Аудио4: AC3, 5 ch, 448 Kbps - English, Original
Субтитры: Русские полные (SRT), English full (SRT)
Навигация по главам: Есть
x265 [info]: frame I: 799, Avg QP:16.65 kb/s: 24125.27
x265 [info]: frame P: 32850, Avg QP:17.89 kb/s: 19464.47
x265 [info]: frame B: 157174, Avg QP:19.76 kb/s: 8913.12
x265 [info]: Weighted P-Frames: Y:5.4% UV:4.2%
x265 [info]: Weighted B-Frames: Y:3.5% UV:2.5%
x265 [info]: consecutive B-frames: 1.0% 1.4% 3.1% 36.9% 8.1% 13.8% 4.9% 29.2% 0.8% 0.2% 0.1% 0.3% 0.0% 0.0%
x265 [info]: encoded 190823 frames in 275542.15s (0.69 fps), 10793.22 kb/s, Avg QP:19.43
Общее
Уникальный идентификатор : 235636862412423559119950785804374474027 (0xB146024960AE05ACEECE8930A5157D2B)
Полное имя : \\.\Паутина.лжи.Random.Hearts.1999.BDRip-HEVC.1080p.mkv
Формат : Matroska
Версия формата : Version 4
Размер файла : 11,7 Гбайт
Продолжительность : 2 ч. 12 м.
Общий поток : 12,6 Мбит/сек
Название фильма : Паутина.лжи.Random.Hearts.1999.BDRip-HEVC.1080p
Дата кодирования : UTC 2021-01-11 08:28:02
Программа кодирования : mkvmerge v51.0.0 ('I Wish') 64-bit
Библиотека кодирования : libebml v1.4.0 + libmatroska v1.6.2

Видео
Идентификатор : 1
Формат : HEVC
Формат/Информация : High Efficiency Video Coding
Профиль формата : Main 10@L4.1@High
Идентификатор кодека : V_MPEGH/ISO/HEVC
Продолжительность : 2 ч. 12 м.
Битрейт : 10,5 Мбит/сек
Ширина : 1 920 пикселей
Высота : 1 038 пикселей
Соотношение сторон : 1,85:1
Режим частоты кадров : Постоянный
Частота кадров : 23,976 (24000/1001) кадра/сек
Цветовое пространство : YUV
Субдискретизация насыщенности : 4:2:0
Битовая глубина : 10 бит
Бит/(Пиксели*Кадры) : 0.221
Размер потока : 9,77 Гбайт (84%)
Заголовок : Random Hearts / Rip by OldGamer
Библиотека кодирования : x265 3.4+4-g3ae3d7116:[Windows][GCC 10.2.0][64 bit] 10bit
Настройки программы : cpuid=1111039 / frame-threads=3 / numa-pools=12 / wpp / no-pmode / no-pme / no-psnr / no-ssim / log-level=2 / input-csp=1 / input-res=1920x1038 / interlace=0 / total-frames=190823 / level-idc=41 / high-tier=1 / uhd-bd=0 / ref=5 / no-allow-non-conformance / no-repeat-headers / annexb / no-aud / no-hrd / info / hash=0 / no-temporal-layers / open-gop / min-keyint=23 / keyint=240 / gop-lookahead=0 / bframes=13 / b-adapt=2 / b-pyramid / bframe-bias=0 / rc-lookahead=40 / lookahead-slices=0 / scenecut=40 / hist-scenecut=0 / radl=0 / no-splice / no-intra-refresh / ctu=64 / min-cu-size=8 / rect / amp / max-tu-size=32 / tu-inter-depth=4 / tu-intra-depth=4 / limit-tu=1 / rdoq-level=2 / dynamic-rd=0.00 / no-ssim-rd / signhide / no-tskip / nr-intra=0 / nr-inter=0 / no-constrained-intra / no-strong-intra-smoothing / max-merge=5 / limit-refs=3 / no-limit-modes / me=3 / subme=7 / merange=57 / temporal-mvp / no-frame-dup / no-hme / weightp / weightb / no-analyze-src-pics / deblock=-3:-3 / no-sao / no-sao-non-deblock / rd=6 / selective-sao=0 / no-early-skip / rskip / no-fast-intra / no-tskip-fast / no-cu-lossless / b-intra / no-splitrd-skip / rdpenalty=0 / psy-rd=2.00 / psy-rdoq=1.00 / no-rd-refine / no-lossless / cbqpoffs=0 / crqpoffs=0 / rc=crf / crf=19.2 / qcomp=0.60 / qpstep=4 / stats-write=0 / stats-read=0 / vbv-maxrate=50000 / vbv-bufsize=50000 / vbv-init=0.9 / crf-max=0.0 / crf-min=0.0 / ipratio=1.40 / pbratio=1.30 / aq-mode=1 / aq-strength=1.00 / no-cutree / zone-count=1 / zones: / start-frame=186086 / end-frame=190812 / qp=36 / no-strict-cbr / qg-size=32 / no-rc-grain / qpmax=69 / qpmin=0 / no-const-vbv / sar=1 / overscan=0 / videoformat=5 / range=0 / colorprim=2 / transfer=2 / colormatrix=2 / chromaloc=0 / display-window=0 / cll=0,0 / min-luma=0 / max-luma=1023 / log2-max-poc-lsb=8 / vui-timing-info / vui-hrd-info / slices=1 / no-opt-qp-pps / no-opt-ref-list-length-pps / no-multi-pass-opt-rps / scenecut-bias=0.00 / hist-threshold=0.01 / no-opt-cu-delta-qp / no-aq-motion / no-hdr10 / no-hdr10-opt / no-dhdr10-opt / no-idr-recovery-sei / analysis-reuse-level=0 / analysis-save-reuse-level=0 / analysis-load-reuse-level=0 / scale-factor=0 / refine-intra=0 / refine-inter=0 / refine-mv=1 / refine-ctu-distortion=0 / no-limit-sao / ctu-info=0 / no-lowpass-dct / refine-analysis-type=0 / copy-pic=1 / max-ausize-factor=1.0 / no-dynamic-refine / no-single-sei / no-hevc-aq / no-svt / no-field / qp-adaptation-range=1.00 / no-scenecut-aware-qpconformance-window-offsets / right=0 / bottom=0 / decoder-max-rate=0
Язык : English
Default : Да
Forced : Нет

Аудио #1
Идентификатор : 2
Формат : AC-3
Формат/Информация : Audio Coding 3
Коммерческое название : Dolby Digital
Идентификатор кодека : A_AC3
Продолжительность : 2 ч. 12 м.
Вид битрейта : Постоянный
Битрейт : 448 Кбит/сек
Каналы : 5 каналов
Channel layout : L R C Ls Rs
Частота : 48,0 КГц
Частота кадров : 31,250 кадров/сек (1536 SPF)
Метод сжатия : С потерями
Размер потока : 425 Мбайт (4%)
Заголовок : DUB
Язык : Russian
Service kind : Complete Main
Default : Да
Forced : Нет

Аудио #2
Идентификатор : 3
Формат : AC-3
Формат/Информация : Audio Coding 3
Коммерческое название : Dolby Digital
Идентификатор кодека : A_AC3
Продолжительность : 2 ч. 12 м.
Вид битрейта : Постоянный
Битрейт : 448 Кбит/сек
Каналы : 5 каналов
Channel layout : L R C Ls Rs
Частота : 48,0 КГц
Частота кадров : 31,250 кадров/сек (1536 SPF)
Метод сжатия : С потерями
Размер потока : 425 Мбайт (4%)
Заголовок : MVO
Язык : Russian
Service kind : Complete Main
Default : Нет
Forced : Нет

Аудио #3
Идентификатор : 4
Формат : AC-3
Формат/Информация : Audio Coding 3
Коммерческое название : Dolby Digital
Идентификатор кодека : A_AC3
Продолжительность : 2 ч. 12 м.
Вид битрейта : Постоянный
Битрейт : 448 Кбит/сек
Каналы : 5 каналов
Channel layout : L R C Ls Rs
Частота : 48,0 КГц
Частота кадров : 31,250 кадров/сек (1536 SPF)
Метод сжатия : С потерями
Размер потока : 425 Мбайт (4%)
Заголовок : AVO (Юрий Живов)
Язык : Russian
Service kind : Complete Main
Default : Нет
Forced : Нет

Аудио #4
Идентификатор : 5
Формат : AC-3
Формат/Информация : Audio Coding 3
Коммерческое название : Dolby Digital
Идентификатор кодека : A_AC3
Продолжительность : 2 ч. 12 м.
Вид битрейта : Постоянный
Битрейт : 448 Кбит/сек
Каналы : 5 каналов
Channel layout : L R C Ls Rs
Частота : 48,0 КГц
Частота кадров : 31,250 кадров/сек (1536 SPF)
Метод сжатия : С потерями
Размер потока : 425 Мбайт (4%)
Язык : English
Service kind : Complete Main
Default : Нет
Forced : Нет

Текст #1
Идентификатор : 6
Формат : UTF-8
Идентификатор кодека : S_TEXT/UTF8
Идентификатор кодека/Информация : UTF-8 Plain Text
Язык : Russian
Default : Нет
Forced : Нет

Текст #2
Идентификатор : 7
Формат : UTF-8
Идентификатор кодека : S_TEXT/UTF8
Идентификатор кодека/Информация : UTF-8 Plain Text
Язык : English
Default : Нет
Forced : Нет

Меню
00:00:00.000 : en:Chapter 1
00:07:13.723 : en:Chapter 2
00:15:12.994 : en:Chapter 3
00:19:42.055 : en:Chapter 4
00:31:57.165 : en:Chapter 5
00:41:18.225 : en:Chapter 6
00:48:06.884 : en:Chapter 7
01:00:17.238 : en:Chapter 8
01:05:12.408 : en:Chapter 9
01:10:14.542 : en:Chapter 10
01:18:55.272 : en:Chapter 11
01:27:50.807 : en:Chapter 12
01:33:34.774 : en:Chapter 13
01:42:57.880 : en:Chapter 14
01:51:48.076 : en:Chapter 15
01:59:42.133 : en:Chapter 16


Релиз от: OldGamer piratbit.org



Скачать Паутина лжи через торрент https://b.radikal.ru/b11/2101/46/25d9f4cc68f2.jpg Скачать фильм Паутина лжи через торрент бесплантно в хорошем качестве О фильме: В результате авиакатастрофы сержант полиции Датч Ван Ден Брок потерял жену, а женщина - конгрессмен Кей Чандлер - мужа. Но эти ... 10 10 1
Торрент: Зарегистрирован [2021-01-13 17:32] · скачан: 18 раз
Статус: √ проверено
Размер: 11.66 GB
Как cкачать? Как скачать Паутина лжи через торрент | UTorrent

28-11-2019 20:33  

Отключить всю рекламу на сайте

    Дорогой пользователь! Огромная просьба, поблагодарите релизера, оцените раздачу и оставьте свои комментарий, если Вы скачали Паутина лжи через торрент бесплатно! Внесите свою лепту в развитие PiratBit!
    Комментировать посты могут только пользователи прошедшие не сложную регистрацию
    Показать сообщения:    

    Паутина лжи через торрент
    Скачать бесплатно Паутина лжи
    Паутина лжи скачать торрент
    Паутина лжи смотреть онлайн
    Cкачать фильм Паутина лжи бесплатно
    Паутина лжи скачать торрент в хорошем качестве
    Паутина лжи смотреть онлайн бесплатно в хорошем качестве


    Вы не можете начинать темы
    Вы не можете отвечать на сообщения
    Вы не можете редактировать свои сообщения
    Вы не можете удалять свои сообщения
    Вы не можете голосовать в опросах
    Вы не можете прикреплять файлы к сообщениям
    Вы можете скачивать файлы