Достать ножи: Стеклянная луковица

MVO

Добыча

Дубляж

Уэнсдэй

1 сезон

Тор

Дубляж

13 клиническая

1 сезон

Жестокая ночь

MVO

Одни из нас

1 сезон

Deluxe

pack

Рекомендуем

30

Пиратка

ВАЖНО

ВАЖНО

Ghostwire

Пиратка

jed

RePack

nioh2

RePack

RDR2

RePack

NEED FOR SPEED™ PAYBACK

RePack

скачать торрент

Кинопоиск HD

Острые козырьки 6 сезон

6 сезон

FAR CRY 6

RePack

скачать торрент

Лицензия

скачать торрент

MVO

1

1 сезон

скачать торрент

1 сезон

скачать торрент

Лицензия

  

Линия горизонта / Horizon Line (Микаэль Марсимаин) [2020, Триллер, UHD WEB-DL 2160p] Дубляж [Line]

Линия горизонта через торрент piratbit.org

Размер: 10.14 GB | Добавлен: 2 года назад | Торрент скачан:186 раз
Смотреть онлайн | Скачать | Поддержите нас   

15-01-2021 17:22 Линия горизонта Скачать торрент  

Линия горизонта | Horizon Line
Год выпуска: 2020
Страна: Швеция, США
Выпущено: Швеция, США, SF Studios Production AB, Ombra Films, STX Films
Жанр: Триллер
Продолжительность: 01:31:33
Перевод: Дублированный | Line
Субтитры: Английские

Режиссер: Микаэль Марсимаин

rating

В ролях: Эллисон Уильямс, Александр Дреймон, Кит Дэвид, Пёрл Маки, Джамейн Хантер, Аманда Кхан, Привилич Могези, Кейт Шепард, Дэйзи Йип Тонг, Ламин Тамба

Описание: Тропический остров. Свадьба друзей. Частный самолет… Все складывалось как нельзя лучше для Сары и Джексона, пока у пилота не случился сердечный приступ прямо в небе. Одни на огромной высоте, без всякой связи, а главное — без понятия, как посадить самолет. Вокруг только небо и штормовой океан.

Качество: UHD WEB-DL 2160p
Формат: MKV

Видео: MPEG-H HEVC HDR Video, 3840x2160 (16:9), 23.976 fps, 15.0 Mb/s
Аудио#1: AC3, 48.0 kHz, 2 ch, 192 kb/s | [Дубляж - Line] RUS
Аудио#2: E-AC3, 48.0 kHz, 6 ch, 640 kb/s | [Оригинал] ENG
скриншот  скриншот  скриншот  скриншот  

General
Unique ID : 208200675664418390329780054045964748236 (0x9CA1FDD78E5FD8A78923BECA4499C5CC)
Complete name : Horizon.Line.2020.WEB-DL.2160p.HDR.Line.mkv
Format : Matroska
Format version : Version 4
File size : 10.1 GiB
Duration : 1 h 31 min
Overall bit rate : 15.9 Mb/s
Encoded date : UTC 2021-01-15 16:37:16
Writing application : mkvmerge v8.3.0 ('Over the Horizon') 64bit
Writing library : libebml v1.3.1 + libmatroska v1.4.2

Video
ID : 1
Format : HEVC
Format/Info : High Efficiency Video Coding
Format profile : Main 10@L5@Main
Codec ID : V_MPEGH/ISO/HEVC
Duration : 1 h 31 min
Bit rate : 15.0 Mb/s
Width : 3 840 pixels
Height : 2 160 pixels
Display aspect ratio : 16:9
Frame rate mode : Variable
Frame rate : 23.976 (23976/1000) FPS
Color space : YUV
Chroma subsampling : 4:2:0 (Type 2)
Bit depth : 10 bits
Bits/(Pixel*Frame) : 0.076
Stream size : 9.60 GiB (95%)
Default : Yes
Forced : No
Color range : Limited
Color primaries : BT.2020
Transfer characteristics : PQ
Matrix coefficients : BT.2020 non-constant
Maximum Content Light Level : 776 cd/m2
Maximum Frame-Average Light Level : 551 cd/m2

Audio #1
ID : 2
Format : AC-3
Format/Info : Audio Coding 3
Commercial name : Dolby Digital
Codec ID : A_AC3
Duration : 1 h 31 min
Bit rate mode : Constant
Bit rate : 192 kb/s
Channel(s) : 2 channels
Channel layout : L R
Sampling rate : 48.0 kHz
Frame rate : 31.250 FPS (1536 SPF)
Bit depth : 16 bits
Compression mode : Lossy
Stream size : 126 MiB (1%)
Title : Дубляж (Line)
Language : Russian
Service kind : Complete Main
Default : Yes
Forced : No

Audio #2
ID : 3
Format : E-AC-3
Format/Info : Enhanced AC-3
Commercial name : Dolby Digital Plus
Codec ID : A_EAC3
Duration : 1 h 31 min
Bit rate mode : Constant
Bit rate : 640 kb/s
Channel(s) : 6 channels
Channel layout : L R C LFE Ls Rs
Sampling rate : 48.0 kHz
Frame rate : 31.250 FPS (1536 SPF)
Compression mode : Lossy
Stream size : 419 MiB (4%)
Language : English
Service kind : Complete Main
Default : No
Forced : No

Text
ID : 4
Format : UTF-8
Codec ID : S_TEXT/UTF8
Codec ID/Info : UTF-8 Plain Text
Duration : 1 h 25 min
Bit rate : 50 b/s
Count of elements : 1101
Stream size : 31.6 KiB (0%)
Language : English
Default : No
Forced : No




Скачать Линия горизонта через торрент https://i6-imageban-ru.translate.goog/out/2021/01/15/f9aa4872852a4711875e322d73a8d26e.jpg Скачать, смотреть онлайн Линия горизонта бесплантно в хорошем качестве Описание: Тропический остров. Свадьба друзей. Частный самолет… Все складывалось как нельзя лучше для Сары и Джексона, пока у пилота не ... 10 10 8
Торрент: Зарегистрирован [2021-01-15 17:22] · скачан: 186 раз
Статус: T временная
Размер: 10.14 GB
Как cкачать? Как скачать Линия горизонта через торрент | UTorrent

% Раздел Тема Автор DL S | L
Фильмы [HD 720p, 1080p] (Хороший звук DUB, MVO) [ 7.22 GB ] Линия горизонта / Horizon Line | iTunes | 1080p killermax2013 Скачать
1 | 0
Фильмы 2019-2020 [DVDrip, WEB-DLRip, HDrip] (DUB, MVO) [ 1.42 GB ] Линия горизонта / Horizon Line | Лицензия | BDRip Twi7ter Скачать
1 | 0
Фильмы (Blu-ray, BD-Remux, HDDVD) [ 24.24 GB ] Линия горизонта / Horizon Line | iTunes | BD Remux 1080p bober100 Скачать
1 | 0
Фильмы [HD 720p, 1080p] (Хороший звук DUB, MVO) [ 5 GB ] Линия горизонта / Horizon Line | iTunes | 720p bober100 Скачать
1 | 0
Фильмы 2019-2020 [DVDrip, WEB-DLRip, HDrip] (DUB, MVO) [ 746 MB ] Линия горизонта / Horizon Line | iTunes | BDRip bober100 Скачать
1 | 0
Фильмы 2019-2020 [DVDrip, WEB-DLRip, HDrip] (DUB, MVO) [ 1.42 GB ] Линия горизонта / Horizon Line | iTunes | BDRip bober100 Скачать
1 | 0
Фильмы [HD 720p, 1080p] (Хороший звук DUB, MVO) [ 10.26 GB ] Линия горизонта / Horizon Line | iTunes | 1080p bober100 Скачать
1 | 0

28-11-2019 20:33  


Отключить вcю реклaмy на сайте, в т.ч. и в плеере онлайн просмотра!

17-02-2021 15:35 Линия горизонта Скачать торрент  

Классный фильм, смотрится легко



    Дорогой пользователь! Огромная просьба, поблагодарите релизера, оцените раздачу и оставьте свои комментарий, если Вы скачали Линия горизонта через торрент бесплатно!!
    Комментировать посты могут только пользователи прошедшие не сложную регистрацию
    Показать сообщения:    


    Линия горизонта через торрент
    Скачать бесплатно Линия горизонта
    Линия горизонта скачать торрент
    Линия горизонта смотреть онлайн
    Cкачать фильм Линия горизонта бесплатно
    Линия горизонта скачать торрент в хорошем качестве
    Линия горизонта смотреть онлайн бесплатно в хорошем качестве
    Вы не можете начинать темы
    Вы не можете отвечать на сообщения
    Вы не можете редактировать свои сообщения
    Вы не можете удалять свои сообщения
    Вы не можете голосовать в опросах
    Вы не можете прикреплять файлы к сообщениям
    Вы можете скачивать файлы
    Линия горизонта / Horizon Line [2020, Триллер, UHD WEB-DL 2160p] Дубляж [Line] смотреть онлайн, скачать торрент picoco.icu