2 сезон

iTunes

WEBRip

1

2 сезон

iTunes

1 сезон

1 сезон

RePack

30

Новинка

ВАЖНО

ИГРА 18+

pack

RePack

MK11
pack

Легкие деньги

RePack

jed

RePack

fifa19

RePack

RDR2

RePack

NEED FOR SPEED™ PAYBACK

4 сезон

9 сезон

Бесстыжие 9 сезон

Все сериалы

все сериалы на PB.wtf

RePack

FAR CRY 5

Anonymous, доброе утро, мы не успеваем собрать деньги на оплату серверов за февраль, помогите нам пожалуйста в это трудное время. В качестве благодарности мы отключим Вам всю рекламу на сайте (укажите свой ник в строку Ваше имя)!

×
  
Magnet ссылка

Смертельная зона / Outside the Wire (Микаэль Хофстрём) [2021, Фантастика, фэнтези, боевик, приключения, WEB-DL 1080p] [Ukr DUB] piratbit.org

Смертельная зона через торрент piratbit.org

Раздают: 1 [ 0 KB/s ]
Размер: 3.15 GB | Добавлен: 1 мес. 20 д. назад | Торрент скачан:21 раз
Скачать  

15-01-2021 21:11 Смертельная зона Скачать торрент  

Смертельная зона / Смертельна зона / Outside the Wire
Год выпуска: 2021
Страна: США, Венгрия
Выпущено: 42, Automatik Entertainment, Inspire Entertainment, Leeding Media, NetFlix, Pioneer Stilking Films
Жанр: Фантастика, фэнтези, боевик, приключения
Продолжительность: 01:55:52
Перевод: Украинский (дублированный) | студия Postmodern
Субтитры: Украинские (Forced, Full), английские (SDH)

Режиссер: Микаэль Хофстрём

В ролях: Энтони Маки, Демсон Идрис, Эмили Бичем, Пилу Асбек, Майкл Келли, Кристина Тонтери-Янг, Бобби Локвуд, Энцо Чиленти, Генри Гаррет, Велибор Топич

Описание: В будущем война ведётся с помощью пилотируемых дронов. Однажды пилот дрона вынужден отправиться в зону военных действий, где вместе с андроидом должен предотвратить ядерный взрыв.

rating

Качество: WEB-DL 1080p
Формат: MKV
Видео: 1920x1080 at 24 fps, MPEG-4 AVC, ~2485 kbps avg
Аудио 1: 48 kHz, E-AC3, 3/2 (L,C,R,l,r) + LFE ch, ~640 kbps avg | студия Postmodern
Аудио 2: 48 kHz, E-AC3 Atmos, 3/2 (L,C,R,l,r) + LFE ch, ~768 kbps avg | English
скриншот  скриншот  скриншот  
Complete name : Outside the Wire (2021) [Ukr,Eng sub.Ukr,Eng] WEB-DL 1080p [Hurtom].mkv
Format : Matroska
Format version : Version 4
File size : 3.15 GiB
Duration : 1 h 55 min
Overall bit rate mode : Variable
Overall bit rate : 3 896 kb/s
Movie name : Смертельна зона / Outside the Wire (2021) [Ukr,Eng sub.Ukr,Eng] WEB-DL 1080p [Hurtom]
Encoded date : UTC 2021-01-15 12:35:24
Writing application : mkvmerge v52.0.0 ('Secret For The Mad') 64-bit
Writing library : libebml v1.4.1 + libmatroska v1.6.2
Cover : Yes
Attachments : cover.jpg

Video
ID : 1
Format : AVC
Format/Info : Advanced Video Codec
Format profile : Main@L4
Format settings : CABAC / 3 Ref Frames
Format settings, CABAC : Yes
Format settings, Reference : 3 frames
Codec ID : V_MPEG4/ISO/AVC
Duration : 1 h 55 min
Bit rate mode : Variable
Bit rate : 2 485 kb/s
Nominal bit rate : 3 160 kb/s
Maximum bit rate : 4 740 kb/s
Width : 1 920 pixels
Height : 1 080 pixels
Display aspect ratio : 16:9
Frame rate mode : Constant
Frame rate : 24.000 FPS
Color space : YUV
Chroma subsampling : 4:2:0
Bit depth : 8 bits
Scan type : Progressive
Bits/(Pixel*Frame) : 0.050
Stream size : 2.01 GiB (64%)
Title : Смертельна зона / Outside the Wire (2021) WEB-DL 1080p [NF]
Writing library : x264 core 148 r2722 1b0121b
Encoding settings : cabac=1 / ref=3 / deblock=1:0:0 / analyse=0x1:0x111 / me=umh / subme=10 / psy=1 / psy_rd=1.00:0.00 / mixed_ref=1 / me_range=24 / chroma_me=1 / trellis=2 / 8x8dct=0 / cqm=0 / deadzone=21,11 / fast_pskip=1 / chroma_qp_offset=-2 / threads=6 / lookahead_threads=1 / sliced_threads=0 / nr=0 / decimate=1 / interlaced=0 / bluray_compat=0 / stitchable=1 / constrained_intra=0 / bframes=2 / b_pyramid=0 / b_adapt=2 / b_bias=0 / direct=3 / weightb=1 / open_gop=0 / weightp=2 / keyint=250 / keyint_min=24 / scenecut=0 / intra_refresh=0 / rc_lookahead=48 / rc=2pass / mbtree=1 / bitrate=3160 / ratetol=1.0 / qcomp=0.50 / qpmin=6 / qpmax=51 / qpstep=4 / cplxblur=20.0 / qblur=0.5 / vbv_maxrate=4740 / vbv_bufsize=6320 / nal_hrd=vbr / filler=0 / ip_ratio=1.40 / aq=1:1.00
Language : English
Default : Yes
Forced : No

Audio #1
ID : 2
Format : E-AC-3
Format/Info : Enhanced AC-3
Commercial name : Dolby Digital Plus
Codec ID : A_EAC3
Duration : 1 h 55 min
Bit rate mode : Constant
Bit rate : 640 kb/s
Channel(s) : 6 channels
Channel layout : L R C LFE Ls Rs
Sampling rate : 48.0 kHz
Frame rate : 31.250 FPS (1536 SPF)
Compression mode : Lossy
Stream size : 530 MiB (16%)
Title : DUB [Postmodern, Netflix], E-AC3 5.1 640 Kbps
Language : Ukrainian
Service kind : Complete Main
Default : Yes
Forced : Yes

Audio #2
ID : 3
Format : E-AC-3 JOC
Format/Info : Enhanced AC-3 with Joint Object Coding
Commercial name : Dolby Digital Plus with Dolby Atmos
Codec ID : A_EAC3
Duration : 1 h 55 min
Bit rate mode : Constant
Bit rate : 768 kb/s
Channel(s) : 6 channels
Channel layout : L R C LFE Ls Rs
Sampling rate : 48.0 kHz
Frame rate : 31.250 FPS (1536 SPF)
Compression mode : Lossy
Stream size : 637 MiB (20%)
Title : Original, E-AC3 JOC 5.1 768 Kbps
Language : English
Service kind : Complete Main
Default : No
Forced : No
Complexity index : 16
Number of dynamic objects : 15
Bed channel count : 1 channel
Bed channel configuration : LFE

Text #1
ID : 4
Format : UTF-8
Codec ID : S_TEXT/UTF8
Codec ID/Info : UTF-8 Plain Text
Duration : 1 h 53 min
Bit rate : 1 b/s
Count of elements : 28
Stream size : 1.25 KiB (0%)
Title : Ukr Forced
Language : Ukrainian
Default : Yes
Forced : Yes

Text #2
ID : 5
Format : UTF-8
Codec ID : S_TEXT/UTF8
Codec ID/Info : UTF-8 Plain Text
Duration : 1 h 53 min
Bit rate : 73 b/s
Count of elements : 1265
Stream size : 61.6 KiB (0%)
Title : Ukr Full
Language : Ukrainian
Default : No
Forced : No

Text #3
ID : 6
Format : UTF-8
Codec ID : S_TEXT/UTF8
Codec ID/Info : UTF-8 Plain Text
Duration : 1 h 45 min
Bit rate : 85 b/s
Count of elements : 1651
Stream size : 65.9 KiB (0%)
Title : Eng SDH
Language : English
Default : No
Forced : No

piratbit.org



Скачать Смертельная зона через торрент https://i114.fastpic.ru/big/2021/0115/94/15ba0efc0d25dc431eba2e40b36bcd94.jpg Скачать фильм Смертельная зона через торрент бесплантно в хорошем качестве Описание: В будущем война ведётся с помощью пилотируемых дронов. Однажды пилот дрона вынужден отправиться в зону военных действий, где ... 7.8 10 4
Торрент: Зарегистрирован [2021-01-15 21:11] · скачан: 21 раз
Статус: √ проверено
Размер: 3.15 GB
Как cкачать? Как скачать Смертельная зона через торрент | UTorrent

% Раздел Тема Автор DL S | L
Фильмы 2021 [DVDrip, WEB-DLRip, HDrip] (DUB, MVO) [ 1.46 GB ] Смертельная зона / Outside the Wire [2021 WEB-DLRip] - [VSI Moscow / Netflix] Twi7ter Скачать
127 | 7
Фильмы 2021 [DVDrip, WEB-DLRip, HDrip] (DUB, MVO) [ 2.18 GB ] Смертельная зона / Outside the Wire [2021 WEB-DLRip] - [VSI Moscow / Netflix] Twi7ter Скачать
220 | 13
Фильмы (WEB-DL 720p, 1080p) [ 7.87 GB ] Смертельная зона / Outside the Wire [2021 WEB-DL-HEVC 1080p] DUB [VSI Moscow / Netflix] bober100 Скачать
92 | 1
Фильмы (WEB-DL 720p, 1080p) [ 3.15 GB ] Смертельная зона / Outside the Wire [2021 WEB-DL 1080p] DUB [VSI Moscow / Netflix] bober100 Скачать
18 | 0
Фильмы (WEB-DL 720p, 1080p) [ 2.33 GB ] Смертельная зона / Outside the Wire [2021 WEBRip 720p] DUB [VSI Moscow / Netflix] bober100 Скачать
12 | 0
Фильмы 2021 [DVDrip, WEB-DLRip, HDrip] (DUB, MVO) [ 748 MB ] Смертельная зона / Outside the Wire [2021 WEB-DLRip] DUB [VSI Moscow / Netflix] bober100 Скачать
4 | 0
Фильмы 2021 [DVDrip, WEB-DLRip, HDrip] (DUB, MVO) [ 1.46 GB ] Смертельная зона / Outside the Wire [2021 WEB-DLRip] DUB [VSI Moscow / Netflix] bober100 Скачать
5 | 0

28-11-2019 20:33  

Отключить всю рекламу на сайте

16-01-2021 20:48 Смертельная зона Скачать торрент  

Спасибо за UKR дубляж!piratbit.org



    Дорогой пользователь! Огромная просьба, поблагодарите релизера, оцените раздачу и оставьте свои комментарий, если Вы скачали Смертельная зона через торрент бесплатно! Внесите свою лепту в развитие PiratBit!
    Комментировать посты могут только пользователи прошедшие не сложную регистрацию
    Показать сообщения:    

    Смертельная зона через торрент
    Скачать бесплатно Смертельная зона
    Смертельная зона скачать торрент
    Смертельная зона смотреть онлайн
    Cкачать фильм Смертельная зона бесплатно
    Смертельная зона скачать торрент в хорошем качестве
    Смертельная зона смотреть онлайн бесплатно в хорошем качестве


    Вы не можете начинать темы
    Вы не можете отвечать на сообщения
    Вы не можете редактировать свои сообщения
    Вы не можете удалять свои сообщения
    Вы не можете голосовать в опросах
    Вы не можете прикреплять файлы к сообщениям
    Вы можете скачивать файлы