Лицензия

MVO

1

1 сезон

Лицензия

Лицензия

13

MVO

1 сезон

Deluxe Edition

pack

Рекомендуем

30

Repack

ВАЖНО

ВАЖНО

Ghostwire

RePack

jed

RePack

fifa19

RePack

RDR2

RePack

NEED FOR SPEED™ PAYBACK

RePack

Кинопоиск HD

 Острые козырьки 6 сезон

6 сезон

FAR CRY 6

RePack

Лицензия

MVO

1

1 сезон

1 сезон

Лицензия

  

Урок литературы (Алексей Коренев) [1968 г., комедия, драма, трагикомедия, экранизация]

Урок литературы через торрент piratbit.org

Раздают: 1 [ 0 KB/s ]
Размер: 1.32 GB | Добавлен: 1 год 8 мес. назад | Торрент скачан:6 раз
Смотреть онлайн Урок литературы | Скачать   

16-01-2021 21:05 Урок литературы Скачать торрент  

Урок литературы

Год выпуска: 1968
Страна: СССР | Мосфильм
Жанр: комедия, драма, трагикомедия, экранизация
Продолжительность: 01:12:05
Перевод: не требуется

Режиссер: Алексей Коренев

В ролях: Евгений Стеблов, Леонид Куравлёв, Инна Макарова, Валентина Малявина, Евгений Леонов, Лариса Пашкова, Любовь Добржанская, Готлиб Ронинсон, Виктория Фёдорова, Николай Парфёнов, Анатолий Линьков, Ольга Семёнова, Виктор Сысоев, А. Петров, С. Фросин, Д. Трудко

Описание: «Урок литературы» — трагикомедия режиссёра Алексея Коренева, снятая на киностудии «Мосфильм» в 1968 году по рассказу Виктории Токаревой "День без вранья", напечатанному в журнале в июле 1964 года.
Молодой учитель литературы не любит свою работу. Он чувствует, что должен что-то изменить в жизни. И однажды он решает говорить только правду. Такое решение приводит к разрыву с невестой, череде недопониманий в школе…

rating

Файл
Формат: MKV
Кодек: x264
Качество: SATRip-AVC (DVB)
Видео: MPEG-4 AVC, 716x492@1041x492, 25.000 fps, 2423 kbps, 0.275 bit/pixel
Аудио: Русский, AC3, 2 chnls, 192 kbps
x264 [info]: frame I:528 Avg QP:14.77 size: 53097
x264 [info]: frame P:23364 Avg QP:16.85 size: 26452
x264 [info]: frame B:84256 Avg QP:17.52 size: 7881
x264 [info]: consecutive B-frames: 0.8% 1.8% 8.1% 24.0% 27.2% 34.3% 2.8% 0.8% 0.1% 0.1% 0.0%
Format : Matroska
Format version : Version 4
File size : 1.32 GiB
Duration : 1 h 12 min
Overall bit rate : 2 618 kb/s
Movie name : Урок литературы (1968) - Rip by -{am}-
Encoded date : UTC 2021-01-15 15:07:18
Writing application : mkvmerge v7.2.0 ('On Every Street') 32bit built on Sep 13 2014 15:42:11
Writing library : libebml v1.3.0 + libmatroska v1.4.1
Attachments : poster.png

Video
ID : 1
Format : AVC
Format/Info : Advanced Video Codec
Format profile : High@L4.1
Format settings : CABAC / 16 Ref Frames
Format settings, CABAC : Yes
Format settings, Reference : 16 frames
Codec ID : V_MPEG4/ISO/AVC
Duration : 1 h 12 min
Bit rate : 2 423 kb/s
Width : 716 pixels
Height : 492 pixels
Display aspect ratio : 2.116
Original display aspect rat : 2.117
Frame rate mode : Constant
Frame rate : 25.000 FPS
Color space : YUV
Chroma subsampling : 4:2:0
Bit depth : 8 bits
Scan type : Progressive
Bits/(Pixel*Frame) : 0.275
Stream size : 1.22 GiB (93%)
Title : Urok.literatury.1968.{am}.1041.Rus
Writing library : x264 core 161 r3027+53 2464769 t_mod_New [(8 & 10)-bit@all X86_64]
Encoding settings : cabac=1 / ref=16 / deblock=1:-3:-2 / analyse=0x3:0x113 / me=umh / subme=11 / psy=1 / fade_compensate=0.00 / psy_rd=1.00:0.20 / mixed_ref=1 / me_range=48 / chroma_me=1 / trellis=2 / 8x8dct=1 / cqm=2 / deadzone=21,11 / fast_pskip=0 / chroma_qp_offset=-3 / threads=15 / lookahead_threads=3 / sliced_threads=0 / nr=0 / decimate=0 / interlaced=0 / bluray_compat=0 / constrained_intra=0 / fgo=0 / bframes=10 / b_pyramid=2 / b_adapt=2 / b_bias=0 / direct=3 / weightb=1 / open_gop=0 / weightp=2 / keyint=250 / keyint_min=25 / scenecut=40 / intra_refresh=0 / rc_lookahead=40 / rc=crf / mbtree=0 / crf=17.0000 / qcomp=0.60 / qpmin=0:0:0 / qpmax=30:30:30 / qpstep=4 / vbv_maxrate=50000 / vbv_bufsize=62500 / crf_max=0.0 / nal_hrd=none / filler=0 / ip_ratio=1.40 / pb_ratio=1.30 / aq=3:1.00 / aq-sensitivity=10.00 / aq-factor=1.00:1.00:1.00 / aq2=0 / aq3=0
Language : Russian
Default : Yes
Forced : No
Color range : Limited
Color primaries : BT.601 PAL
Transfer characteristics : BT.470 System B/G
Matrix coefficients : BT.470 System B/G

Audio
ID : 2
Format : AC-3
Format/Info : Audio Coding 3
Commercial name : Dolby Digital
Codec ID : A_AC3
Duration : 1 h 12 min
Bit rate mode : Constant
Bit rate : 192 kb/s
Channel(s) : 2 channels
Channel layout : L R
Sampling rate : 48.0 kHz
Frame rate : 31.250 FPS (1536 SPF)
Compression mode : Lossy
Stream size : 99.0 MiB (7%)
Title : Original
Language : Russian
Service kind : Complete Main
Default : Yes
Forced : No
скриншот  скриншот  скриншот  скриншот  

скриншот  скриншот  скриншот  скриншот  

скриншот  скриншот  скриншот  скриншот  



Скачать Урок литературы через торрент https://img11.lostpic.net/2021/01/16/8c4006ee2fcf7899ceb5ae12c6f4baa3.th.png Скачать, смотреть онлайн Урок литературы бесплантно в хорошем качестве Описание: «Урок литературы» — трагикомедия режиссёра Алексея Коренева, снятая на киностудии «Мосфильм» в 1968 году по рассказу Виктории ... 10 10 1
Info! Золотая раздача, скачанное не засчитывается.
Торрент: Зарегистрирован [2021-01-16 21:05] · скачан: 6 раз
Статус: √ проверено
Размер: 1.32 GB
Как cкачать? Как скачать Урок литературы через торрент | UTorrent

28-11-2019 20:33  

Отключить вcю реклaмy на сайте

    Дорогой пользователь! Огромная просьба, поблагодарите релизера, оцените раздачу и оставьте свои комментарий, если Вы скачали Урок литературы через торрент бесплатно!!
    Комментировать посты могут только пользователи прошедшие не сложную регистрацию
    Показать сообщения:    


    Урок литературы через торрент
    Скачать бесплатно Урок литературы
    Урок литературы скачать торрент
    Урок литературы смотреть онлайн
    Cкачать фильм Урок литературы бесплатно
    Урок литературы скачать торрент в хорошем качестве
    Урок литературы смотреть онлайн бесплатно в хорошем качестве
    Вы не можете начинать темы
    Вы не можете отвечать на сообщения
    Вы не можете редактировать свои сообщения
    Вы не можете удалять свои сообщения
    Вы не можете голосовать в опросах
    Вы не можете прикреплять файлы к сообщениям
    Вы можете скачивать файлы