2 сезон

iTunes

WEBRip

1

2 сезон

iTunes

1 сезон

1 сезон

RePack

30

Ultimate

ВАЖНО

ИГРА 18+

pack

RePack

MK11
pack

Легкие деньги

RePack

jed

RePack

fifa19

RePack

RDR2

RePack

NEED FOR SPEED™ PAYBACK

4 сезон

9 сезон

Бесстыжие 9 сезон

Все сериалы

все сериалы на PB.wtf

RePack

FAR CRY 5

Anonymous, добрый вечер, мы не успеваем собрать деньги на оплату серверов за февраль, помогите нам пожалуйста в это трудное время. В качестве благодарности мы отключим Вам всю рекламу на сайте (укажите свой ник в строку Ваше имя)!

×
  
Magnet ссылка

Феи: Тайна страны драконов / Bayala: A Magical Adventure (Айна Ярвин, Федерико Милелла) [2019, Мультфильм, фэнтези, приключения, семейный, BDRip 1080p] DUB (rus, ukr) [IVI] piratbit.org

Феи: Тайна страны драконов через торрент piratbit.org

Раздают: 4 [ 0 KB/s ]
Размер: 6.61 GB | Добавлен: 1 мес. 18 д. назад | Торрент скачан:37 раз
Скачать  

17-01-2021 16:16 Феи: Тайна страны драконов Скачать торрент  

Феи: Тайна страны драконов | Bayala: A Magical Adventure
Год выпуска: 2019
Страна: Германия, Люксембург
Выпущено: Ulysses Filmproduktion, Fabrique d'Images, Telepool
Жанр: Мультфильм, фэнтези, приключения, семейный
Продолжительность: 01:24:22
Перевод: Дублированный | IVI
Субтитры: отсутствуют

Режиссер: Айна Ярвин, Федерико Милелла

rating

В ролях: Мэдисон Маллахи, Джессика Уэбб, Оливия Мэннинг, Сара Петерсен, Марк Томпсон, Грегори Макс, Лиза Ортиз, Ребекка Бекер, Кэтрин Кэхилл, Луиз Уайт

Описание: Испокон веков эльфийские племена жили бок о бок с самыми загадочными существами на свете – драконами, в волшебной Стране под названием «Баяла». Между эльфами и драконами существовала особая мистическая связь, ведь эльфы присматривали за драконьими яйцами. Но однажды Офира - королева темных эльфов, украла все драконьи яйца, а вместе с ними похитила и маленькую принцессу солнечных эльфов. Драконы исчезли, Баяла начала терять свою волшебную силу, в то время как Офира стала ещё более могущественной. Найдется ли герой, готовый бросить ей вызов и сумеют ли эльфийские племена объединиться, чтобы вернуть счастье и процветание родному краю?

Качество: BDRip 1080p
Формат: MKV

Видео: MPEG-4 AVC, 10.0 Mb/s, 1920x1036, 24.000 fps
Аудио #1 Russian: 48 kHz, AC3 Dolby Digital, 3/2 (L, C, R, l, r) + LFE ch, ~384 Kbps | DUB | IVI
Аудио #2 Ukrainian: 48 kHz, AC3 Dolby Digital, 2/0 (L, R) ch, ~192 Kbps | DUB | Новий
Аудио #3 German: 48 kHz, Enhanced AC3 Dolby Digital, 3/2 (L, C, R, l, r) + LFE ch, ~640 Kbps | Original
скриншот  скриншот  скриншот  скриншот  

Complete name: Fei.Tayna.stranyi.drakonov.2019.1080p.Bluray.ELEKTRI4KA.UNIONGANG.mkv
Format: Matroska
Format version: Version 4 / Version 2
File size: 6.61 GiB
Duration: 1 h 24 min
Overall bit rate: 11.2 Mb/s
Movie name: .ELEKTRI4KA.UNIONGANG.
Encoded date: UTC 2021-01-17 14:30:25
Writing application: mkvmerge v8.3.0 ('Over the Horizon') 64bit
Writing library: libebml v1.3.1 + libmatroska v1.4.2

Video
ID: 1
Format: AVC
Format/Info: Advanced Video Codec
Format profile: High@L5
Format settings, CABAC: Yes
Format settings, Reference frames: 5 frames
Codec ID: V_MPEG4/ISO/AVC
Duration: 1 h 24 min
Bit rate: 10 000 kb/s
Width: 1 920 pixels
Height: 1 036 pixels
Display aspect ratio: 1.85:1
Frame rate mode: Constant
Frame rate: 24.000 FPS
Color space: YUV
Chroma subsampling: 4:2:0
Bit depth: 8 bits
Scan type: Progressive
Bits/(Pixel*Frame): 0.209
Stream size: 5.89 GiB (89%)
Title: .ELEKTRI4KA.UNIONGANG.
Writing library: x264 core 161 r3020 d198931
Encoding settings: cabac=1 / ref=5 / deblock=1:-3:-3 / analyse=0x3:0x113 / me=hex / subme=10 / psy=1 / psy_rd=1.00:0.00 / mixed_ref=1 / me_range=16 / chroma_me=1 / trellis=2 / 8x8dct=1 / cqm=0 / deadzone=21, 11 / fast_pskip=0 / chroma_qp_offset=-2 / threads=33 / lookahead_threads=2 / sliced_threads=0 / nr=0 / decimate=0 / interlaced=0 / bluray_compat=0 / constrained_intra=0 / bframes=8 / b_pyramid=2 / b_adapt=1 / b_bias=0 / direct=3 / weightb=0 / open_gop=0 / weightp=2 / keyint=240 / keyint_min=24 / scenecut=40 / intra_refresh=0 / rc=2pass / mbtree=0 / bitrate=10000 / ratetol=1.0 / qcomp=0.60 / qpmin=0 / qpmax=69 / qpstep=4 / cplxblur=20.0 / qblur=0.5 / ip_ratio=1.40 / pb_ratio=1.30 / aq=1:1.00
Language: German
Default: Yes
Forced: No

Audio #1
ID: 2
Format: AC-3
Format/Info: Audio Coding 3
Mode extension: CM (complete main)
Format settings, Endianness: Big
Codec ID: A_AC3
Duration: 1 h 23 min
Bit rate mode: Constant
Bit rate: 384 kb/s
Channel(s): 6 channels
Channel positions: Front: L C R, Side: L R, LFE
Sampling rate: 48.0 kHz
Frame rate: 31.250 FPS (1536 spf)
Bit depth: 16 bits
Compression mode: Lossy
Stream size: 231 MiB (3%)
Title: DUB (IVI)
Language: Russian
Default: Yes
Forced: Yes

Audio #2
ID: 3
Format: AC-3
Format/Info: Audio Coding 3
Mode extension: CM (complete main)
Format settings, Endianness: Big
Codec ID: A_AC3
Duration: 1 h 24 min
Bit rate mode: Constant
Bit rate: 192 kb/s
Channel(s): 2 channels
Channel positions: Front: L R
Sampling rate: 48.0 kHz
Frame rate: 31.250 FPS (1536 spf)
Bit depth: 16 bits
Compression mode: Lossy
Stream size: 116 MiB (2%)
Title: DUB
Language: Ukrainian
Default: No
Forced: No

Audio #3
ID: 4
Format: AC-3
Format/Info: Audio Coding 3
Mode extension: CM (complete main)
Format settings, Endianness: Big
Codec ID: A_AC3
Duration: 1 h 24 min
Bit rate mode: Constant
Bit rate: 640 kb/s
Channel(s): 6 channels
Channel positions: Front: L C R, Side: L R, LFE
Sampling rate: 48.0 kHz
Frame rate: 31.250 FPS (1536 spf)
Bit depth: 16 bits
Compression mode: Lossy
Stream size: 386 MiB (6%)
Title: Original
Language: German
Default: No
Forced: No

Menu
00:00:00.000: :Chapter 01
00:11:15.083: :Chapter 02
00:18:34.333: :Chapter 03
00:29:16.958: :Chapter 04
00:39:25.958: :Chapter 05

piratbit.org



Скачать Феи: Тайна страны драконов через торрент https://i3.imageban.ru/out/2021/01/17/b69f7525cf4cf0d952692af4ccff0c82.png Скачать фильм Феи: Тайна страны драконов через торрент бесплантно в хорошем качестве Описание: Испокон веков эльфийские племена жили бок о бок с самыми загадочными существами на свете – драконами, в волшебной Стране под ... 10 10 6
Торрент: Зарегистрирован [2021-01-17 16:16] · скачан: 37 раз
Статус: √ проверено
Размер: 6.61 GB
Как cкачать? Как скачать Феи: Тайна страны драконов через торрент | UTorrent

% Раздел Тема Автор DL S | L
Зарубежные Мультфильмы (BDRip 1080p, 720p, Blu-ray, BD-Remux) [ 4.26 GB ] Феи: Тайна страны драконов / Bayala: A Magical Adventure [2019 Мультфильм BDRip 720p] DUB [IVI] bober100 Скачать
5 | 0
Иностранные мультфильмы [ 1.37 GB ] Феи: Тайна страны драконов / Bayala: A Magical Adventure [2019 Мультфильм BDRip] DUB [IVI] bober100 Скачать
7 | 0
Зарубежные Мультфильмы (BDRip 1080p, 720p, Blu-ray, BD-Remux) [ 16.19 GB ] Феи: Тайна страны драконов / Bayala: A Magical Adventure [2019 Мультфильм BD Remux 1080p] DUB [IVI] bober100 Скачать
3 | 0

28-11-2019 20:33  

Отключить всю рекламу на сайте

    Дорогой пользователь! Огромная просьба, поблагодарите релизера, оцените раздачу и оставьте свои комментарий, если Вы скачали Феи: Тайна страны драконов через торрент бесплатно! Внесите свою лепту в развитие PiratBit!
    Комментировать посты могут только пользователи прошедшие не сложную регистрацию
    Показать сообщения:    

    Феи: Тайна страны драконов через торрент
    Скачать бесплатно Феи: Тайна страны драконов
    Феи: Тайна страны драконов скачать торрент
    Феи: Тайна страны драконов смотреть онлайн
    Cкачать фильм Феи: Тайна страны драконов бесплатно
    Феи: Тайна страны драконов скачать торрент в хорошем качестве
    Феи: Тайна страны драконов смотреть онлайн бесплатно в хорошем качестве


    Вы не можете начинать темы
    Вы не можете отвечать на сообщения
    Вы не можете редактировать свои сообщения
    Вы не можете удалять свои сообщения
    Вы не можете голосовать в опросах
    Вы не можете прикреплять файлы к сообщениям
    Вы можете скачивать файлы