2 сезон

iTunes

WEBRip

1

2 сезон

iTunes

1 сезон

1 сезон

RePack

30

Новинка

ВАЖНО

ИГРА 18+

pack

RePack

MK11
pack

Легкие деньги

RePack

jed

RePack

fifa19

RePack

RDR2

RePack

NEED FOR SPEED™ PAYBACK

4 сезон

9 сезон

Бесстыжие 9 сезон

Все сериалы

все сериалы на PB.wtf

RePack

FAR CRY 5

Anonymous, добрый вечер, мы не успеваем собрать деньги на оплату серверов за февраль, помогите нам пожалуйста в это трудное время. В качестве благодарности мы отключим Вам всю рекламу на сайте (укажите свой ник в строку Ваше имя)!

×
  
Magnet ссылка

Петербургский роман (1-8 серии из 8) (Александр Муратов (II)) [2018 г., Мелодрама, HDTV (1080i) Оригинал] piratbit.org

Скачать  

19-01-2021 20:22 Петербургский роман Скачать торрент  

Петербургский роман
Год выпуска: 2018
Страна: Россия
Жанр: Мелодрама
Продолжительность: 8 х ~ 00:50:00
Перевод: Оригинальный

Режиссер: Александр Муратов (II)

В ролях: Ирина Горячева, Сергей Чонишвили, Олег Масленников-Войтов, Александра Флоринская, Владимир Ерёмин, Анатолий Кот, Екатерина Васильева, Валерий Баринов, Егор Бакулин, Владимир Селезнёв (II)

Описание: В день двадцатилетия своей свадьбы Надежда Грушина лишается всего, что составляло смысл ее жизни: муж-бизнесмен уходит к другой, повзрослевшая дочь уезжает за границу. Надежда остается одна в большой родительской квартире в центре Санкт-Петербурга. Героиня не знает, что ее сосед, муниципальный чиновник Павел Бобров и его юрист уже два года расселяют ее дом, чтобы устроить там роскошный отель. Павел надеется заработать огромные деньги, и на этом пути ничто его не остановит. Теперь – очередь Надежды Грушиной... Сюжетная линия главной героини тесно переплетается с городом на Неве, его жителями, их историями, белыми ночами, всевозможными мифами и легендами, которыми пронизан Питер.

Качество: HDTV (1080i)
Формат: MKV
Видео кодек: AVC
Аудио кодек: MP2
Видео: MPEG-4 AVC, (1920x1080),7272 Кбит/с, 25.000 кадра/сек
Аудио#1: MP2, 2 ch, 256 kbps (Rus) 48.0 KHz Оригинал
Название: Peterburgskij.roman.E01.HDTV(1080i)
:
Тип потока: Видео
Длительность: 00:48:15
Кодек: AVC
Кодек/описание: Advanced Video Codec
Кодек/профиль: High@L4
Кодек/ID: 27
Кодек/CABAC: Yes
Кодек/ReFrames: 3 frames
Размеры изображения: 1920 x 1080 (16:9)
Частота кадров: 25.000 FPS
Размер потока: 2.45 GiB (92%)
Битрейт: 7 272 kb/s
Стандарт: Component
Цветовое пространство: YUV
Тип развёртки: Interlaced
Колориметрия: 4:2:0
Глубина: 8 bits
:
Тип потока: Звук #1
Язык: Russian
Длительность: 00:48:15.192
Кодек: MPEG Audio
Кодек/профиль: Layer 2
Кодек/ID: 3
Частота дискретизации: 48.0 kHz
Каналов: 2 channels
Битрейт: 256 kb/s
Битрейт/тип: Constant
Размер потока: 88.4 MiB (3%)
Метод сжатия: Lossy

piratbit.org



28-11-2019 20:33  

Отключить всю рекламу на сайте

20-01-2021 05:45 Петербургский роман Скачать торрент  

Топик был перенесен из форума Наши сериалы в форум Оформление раздач (Наши, Зарубежные Сериалы)


bober100piratbit.org



    Дорогой пользователь! Огромная просьба, поблагодарите релизера, оцените раздачу и оставьте свои комментарий, если Вы скачали Петербургский роман через торрент бесплатно! Внесите свою лепту в развитие PiratBit!
    Комментировать посты могут только пользователи прошедшие не сложную регистрацию
    Показать сообщения:    

    Петербургский роман через торрент
    Скачать бесплатно Петербургский роман
    Петербургский роман скачать торрент
    Петербургский роман смотреть онлайн
    Cкачать фильм Петербургский роман бесплатно
    Петербургский роман скачать торрент в хорошем качестве
    Петербургский роман смотреть онлайн бесплатно в хорошем качестве


    Вы не можете начинать темы
    Вы не можете отвечать на сообщения
    Вы не можете редактировать свои сообщения
    Вы не можете удалять свои сообщения
    Вы не можете голосовать в опросах
    Вы не можете прикреплять файлы к сообщениям
    Вы можете скачивать файлы