1 сезон

3 сезон

iTunes

1

iTunes

DUB Netflix

iTunes

13

1 сезон

RePack

30

Deluxe

pack

Легкие деньги

ВАЖНО

ИГРА 18+

pack

RePack

MK11

RePack

jed

RePack

fifa19

RePack

RDR2

RePack

NEED FOR SPEED™ PAYBACK

4 сезон

9 сезон

Бесстыжие 9 сезон

Все сериалы

все сериалы на PB.wtf

RePack

FAR CRY 5

Anonymous, добрый вечер, мы не успеваем до 1 числа собрать деньги на оплату серверов, помогите нам пожалуйста в это трудное время. В качестве благодарности мы отключим Вам всю рекламу на сайте (укажите свой ник в строку Ваше имя)!

×
  
Magnet ссылка

Полёт / Сезон: 1 / Серии: 1-8 из 8 (Пётр Тодоровский) [2021, Драма, триллер, SATRip] piratbit.org

Полёт через торрент piratbit.org

Раздают: 1 [ 0 KB/s ]
Размер: 4.98 GB | Добавлен: 4 мес. 19 д. назад | Торрент скачан:82 раза
Скачать  

25-01-2021 15:18 Полёт Скачать торрент  

Полёт
Год выпуска: 2021
Страна: Россия
Выпущено: Premier Studios
Жанр: Драма, триллер
Продолжительность: ~ 00:48:00
Субтитры: отсутствуют

Режиссер: Пётр Тодоровский



В ролях: Никита Ефремов, Михаил Ефремов, Павел Табаков, Оксана Акиньшина, Юлия Хлынина, Евгения Добровольская, Артур Сопельник, Александр Робак, Светлана Камынина, Сергей Чонишвили, Тимофей Трибунцев, Александра Урсуляк, Алексей Макаров, Олег Васильков, Виктория Толстоганова, Екатерина Шумакова, Лиза Медведева, Ангелина Стречина

Описание: Обычная командировка сотрудников строительной компании обернулась трагедией: самолет, на котором они должны были лететь, разбивается. Чудом выжившие начинают вести себя странно: спортсмен Дмитрий Юрьич беспробудно пьёт, робкий интеллигент Илюша уходит вразнос, а исключительно неприятный Жабенко начинает ходить на похороны погибших в катастрофе и наоборот оказывается добрым и сочувствующим человеком. В каждой серии рассказана история одного из героев, которых объединила катастрофа. Неожиданные перемены настораживают знакомых, но никто даже не догадывается, какую зловещую тайну они все скрывают...

Качество: SATRip
Формат: AVI

Видео: XviD, ~ 1650 Кбит/с, 720x304
Аудио: MP3, 2 ch, 192 Кбит/с
скриншот  скриншот  скриншот  скриншот  

Общее
Полное имя : C:\Polet.2020.XviD.SATRip.25Kuzmich\Polet.e01.XviD.SATRip.25Kuzmich.avi
Формат : AVI
Формат/Информация : Audio Video Interleave
Размер файла : 637 Мбайт
Продолжительность : 48 м. 3 с.
Общий поток : 1852 Кбит/сек
Программа кодирования : VirtualDubMod 1.5.10.3 (build 2550/release)
Библиотека кодирования : VirtualDubMod build 2550/release

Видео
Идентификатор : 0
Формат : MPEG-4 Visual
Профиль формата : Advanced Simple@L5
Настройки формата : BVOP1
Параметр BVOP формата : 1
Параметр QPel формата : Нет
Параметр GMC формата : Без точки перехода
Параметр матрицы формата : Default (MPEG)
Идентификатор кодека : XVID
Идентификатор кодека/Подсказка : XviD
Продолжительность : 48 м. 3 с.
Битрейт : 1577 Кбит/сек
Ширина : 720 пикселей
Высота : 304 пикселя
Соотношение сторон : 2,35:1
Частота кадров : 25,000 кадров/сек
Цветовое пространство : YUV
Субдискретизация насыщенности : 4:2:0
Битовая глубина : 8 бит
Тип развёртки : Прогрессивная
Метод сжатия : С потерями
Бит/(Пиксели*Кадры) : 0.288
Размер потока : 542 Мбайт (85%)
Библиотека кодирования : XviD 73

Аудио
Идентификатор : 1
Формат : MPEG Audio
Версия формата : Version 1
Профиль формата : Layer 3
Настройки формата : Joint stereo
Идентификатор кодека : 55
Идентификатор кодека/Подсказка : MP3
Продолжительность : 48 м. 3 с.
Вид битрейта : Постоянный
Битрейт : 192 Кбит/сек
Каналы : 2 канала
Частота : 48,0 КГц
Частота кадров : 41,667 кадра/сек (1152 SPF)
Метод сжатия : С потерями
Размер потока : 66,0 Мбайт (10%)
Выравнивание : Соединение по промежуткам
Библиотека кодирования : LAME3.99r
Настройки программы : -m j -V 4 -q 2 -lowpass 18.6 -b 192

Когда раздача ведётся путём добавления новых серий, при каждом добавлении создётся новый торрент. Чтобы начать докачку новой серии, пользователям необходимо сделать следующее:
(1) остановить скачивание,
(2) удалить старый торрент у себя из клиента (старые серии удалять не надо),
(3) скачать новый торрент и запустить его у себя в клиенте вместо старого, при этом указать клиенту путь в старую папку, куда и должно происходить скачивание новых серий.
Ваш клиент при этом должен произвести хеширование (проверку) старой папки (если не производит сам - помогите ему сделать это), и будет докачивать только те серии, которых у вас ещё нет. Старые серии при этом не удаляются, а продолжают раздаваться!
Eсли вы уже удалили старые серии, то предотвратить повторную закачку старых серий можно, отжав галочку в соответсвующих местах при запуске нового торрента. По возможности, желательно не удалять старые серии как можно дольше, чтобы релизёр не столько продолжал раздавать старые серии, а смог сконцентрироваться на новых.

piratbit.org



Скачать Полёт через торрент https://c.radikal.ru/c32/2101/1f/fd1e5106b685.jpg Скачать фильм Полёт через торрент бесплантно в хорошем качестве Описание: Обычная командировка сотрудников строительной компании обернулась трагедией: самолет, на котором они должны были лететь, ... 8.7 10 15
Торрент: Зарегистрирован [2021-02-04 17:12] · скачан: 82 раз
Статус: √ проверено
Размер: 4.98 GB
Как cкачать? Как скачать Полёт через торрент | UTorrent

% Раздел Тема Автор DL S | L
TNT serials [ 13.61 GB ] Полёт / Сезон: 1 / Серии: 1-8 из 8 [2021 HDTV 1080i] bober100 Скачать
5 | 0
TNT serials [ 13.26 GB ] Полёт / Сезон: 1 / Серии: 1-8 из 8 [2021 WEBRip 1080p ] bober100 Скачать
4 | 0
TNT serials [ 9.01 GB ] Полёт / Сезон: 1 / Серии: 1-8 из 8 [2021 WEBRip 720p ] bober100 Скачать
5 | 0
TNT serials [ 5.21 GB ] Полёт / Сезон: 1 / Серии: 1-8 из 8 [2021 WEBRip-AVC ] bober100 Скачать
4 | 0
TNT serials [ 4.69 GB ] Полёт / Сезон: 1 / Серии: 1-8 из 8 [2021 WEBRip ] bober100 Скачать
6 | 0


Последний раз редактировалось: bober100 (2021-02-04 17:12), всего редактировалось 8 раз(а)

28-11-2019 20:33  

Отключить всю рекламу на сайте

25-01-2021 15:26 Полёт Скачать торрент  

Чё то смахивает на Пункт назначения?) piratbit.org



30-01-2021 11:42 Полёт Скачать торрент  

ser74 писал(а):

Чё то смахивает на Пункт назначения?)

Вообще нет, сериал про суровые реалии жизниpiratbit.org



02-02-2021 21:06 Полёт Скачать торрент  

DEVI писал(а):

ser74 писал(а):

Чё то смахивает на Пункт назначения?)

javascript:emoticon(' ')
Вообще нет, сериал про суровые реалии жизни

ха.. они про обычные реалии жизни

piratbit.org



02-02-2021 21:13 Полёт Скачать торрент  

очко себе затки качествоpiratbit.org



02-02-2021 21:15 Полёт Скачать торрент  

трудно потерпеть надо лажу ложить?piratbit.org



02-02-2021 21:15 Полёт Скачать торрент  

не можешь кодировать не берись дноpiratbit.org



05-02-2021 14:44 Полёт Скачать торрент  

Dinamo032 писал(а):

не можешь кодировать не берись дно

ты тут сам с собой общаешься?молодецpiratbit.org



    Дорогой пользователь! Огромная просьба, поблагодарите релизера, оцените раздачу и оставьте свои комментарий, если Вы скачали Полёт через торрент бесплатно! Внесите свою лепту в развитие PiratBit!
    Комментировать посты могут только пользователи прошедшие не сложную регистрацию
    Показать сообщения:    

    Полёт через торрент
    Скачать бесплатно Полёт
    Полёт скачать торрент
    Полёт смотреть онлайн
    Cкачать фильм Полёт бесплатно
    Полёт скачать торрент в хорошем качестве
    Полёт смотреть онлайн бесплатно в хорошем качестве


    Вы не можете начинать темы
    Вы не можете отвечать на сообщения
    Вы не можете редактировать свои сообщения
    Вы не можете удалять свои сообщения
    Вы не можете голосовать в опросах
    Вы не можете прикреплять файлы к сообщениям
    Вы можете скачивать файлы