1 сезон

3 сезон

iTunes

1

iTunes

DUB Netflix

iTunes

13

1 сезон

RePack

30

Deluxe

pack

Легкие деньги

ВАЖНО

ИГРА 18+

pack

RePack

MK11

RePack

jed

RePack

fifa19

RePack

RDR2

RePack

NEED FOR SPEED™ PAYBACK

4 сезон

9 сезон

Бесстыжие 9 сезон

Все сериалы

все сериалы на PB.wtf

RePack

FAR CRY 5

Anonymous, доброй ночи, мы не успеваем до 1 числа собрать деньги на оплату серверов, помогите нам пожалуйста в это трудное время. В качестве благодарности мы отключим Вам всю рекламу на сайте (укажите свой ник в строку Ваше имя)!

×
  
Magnet ссылка

Полёт / Сезон: 1 / Серии: 1-8 из 8 (Пётр Тодоровский) [2021, Драма, триллер, WEBRip 1080p, (Версия 18+)] piratbit.org

Полёт через торрент piratbit.org

Раздают: 4 [ 0 KB/s ]
Размер: 13.26 GB | Добавлен: 4 мес. 15 д. назад | Торрент скачан:268 раз
Скачать  

25-01-2021 18:14 Полёт Скачать торрент  

Полёт
Год выпуска: 2021
Страна: Россия
Выпущено: Premier Studios
Жанр: Драма, триллер
Продолжительность: ~ 00:50:00
Субтитры: отсутствуют
Версия 18+. Внимание! Присутствует ненормативная лексика.

Режиссер: Пётр Тодоровский

rating

В ролях: Никита Ефремов, Михаил Ефремов, Павел Табаков, Оксана Акиньшина, Юлия Хлынина, Евгения Добровольская, Артур Сопельник, Александр Робак, Светлана Камынина, Сергей Чонишвили, Тимофей Трибунцев, Александра Урсуляк, Алексей Макаров, Олег Васильков, Виктория Толстоганова, Екатерина Шумакова, Лиза Медведева, Ангелина Стречина

Описание: Обычная командировка сотрудников строительной компании обернулась трагедией: самолет, на котором они должны были лететь, разбивается. Чудом выжившие начинают вести себя странно: спортсмен Дмитрий Юрьич беспробудно пьёт, робкий интеллигент Илюша уходит вразнос, а исключительно неприятный Жабенко начинает ходить на похороны погибших в катастрофе и наоборот оказывается добрым и сочувствующим человеком. В каждой серии рассказана история одного из героев, которых объединила катастрофа. Неожиданные перемены настораживают знакомых, но никто даже не догадывается, какую зловещую тайну они все скрывают...

Качество: WEBRip 1080p
Формат: MKV

Видео: MPEG4 AVC Video, H264, 2.40:1, 1920x800, 25 fps, ~4300 kbps, 0.113 bit/pixel
Аудио: 48.0 kHz, AC3 Dolby Digital, 2/0 (L,R) ch, ~ 192 kbps
скриншот  скриншот  скриншот  скриншот  скриншот  

General
Unique ID : 234218837084663185196257955628263261822 (0xB034E83D7A8D7CFC8B72804057A1C67E)
Complete name : D:\Polet.2020.WEB-DL.(1080p).Getty\Polet.e01.2020.WEB-DL.(1080p).Getty.mkv
Format : Matroska
Format version : Version 4 / Version 2
File size : 1.58 GiB
Duration : 49 min 52 s
Overall bit rate mode : Variable
Overall bit rate : 4 522 kb/s
Movie name : Polet.e01.2020.WEB-DL.(1080p).Getty
Encoded date : UTC 2021-01-25 18:05:17
Writing application : mkvmerge v7.8.0 ('River Man') 32bit built on Mar 27 2015 16:18:02
Writing library : libebml v1.3.1 + libmatroska v1.4.2

Video
ID : 1
Format : AVC
Format/Info : Advanced Video Codec
Format profile : High@L4
Format settings : CABAC / 1 Ref Frames
Format settings, CABAC : Yes
Format settings, ReFrames : 1 frame
Format settings, GOP : M=1, N=50
Codec ID : V_MPEG4/ISO/AVC
Duration : 49 min 52 s
Bit rate mode : Variable
Bit rate : 4 329 kb/s
Maximum bit rate : 4 500 kb/s
Width : 1 920 pixels
Height : 800 pixels
Display aspect ratio : 2.40:1
Frame rate mode : Constant
Frame rate : 25.000 FPS
Color space : YUV
Chroma subsampling : 4:2:0
Bit depth : 8 bits
Scan type : Progressive
Bits/(Pixel*Frame) : 0.113
Stream size : 1.51 GiB (96%)
Default : Yes
Forced : No

Audio
ID : 2
Format : AC-3
Format/Info : Audio Coding 3
Codec ID : A_AC3
Duration : 49 min 52 s
Bit rate mode : Constant
Bit rate : 192 kb/s
Channel(s) : 2 channels
Channel positions : Front: L R
Sampling rate : 48.0 kHz
Frame rate : 31.250 FPS (1536 SPF)
Bit depth : 16 bits
Compression mode : Lossy
Stream size : 68.5 MiB (4%)
Service kind : Complete Main
Default : Yes
Forced : No

Когда раздача ведётся путём добавления новых серий, при каждом добавлении создётся новый торрент. Чтобы начать докачку новой серии, пользователям необходимо сделать следующее:
(1) остановить скачивание,
(2) удалить старый торрент у себя из клиента (старые серии удалять не надо),
(3) скачать новый торрент и запустить его у себя в клиенте вместо старого, при этом указать клиенту путь в старую папку, куда и должно происходить скачивание новых серий.
Ваш клиент при этом должен произвести хеширование (проверку) старой папки (если не производит сам - помогите ему сделать это), и будет докачивать только те серии, которых у вас ещё нет. Старые серии при этом не удаляются, а продолжают раздаваться!
Eсли вы уже удалили старые серии, то предотвратить повторную закачку старых серий можно, отжав галочку в соответсвующих местах при запуске нового торрента. По возможности, желательно не удалять старые серии как можно дольше, чтобы релизёр не столько продолжал раздавать старые серии, а смог сконцентрироваться на новых.

piratbit.org



Скачать Полёт через торрент https://c.radikal.ru/c32/2101/1f/fd1e5106b685.jpg Скачать фильм Полёт через торрент бесплантно в хорошем качестве Описание: Обычная командировка сотрудников строительной компании обернулась трагедией: самолет, на котором они должны были лететь, ... 8.1 10 19
Торрент: Зарегистрирован [2021-02-04 18:36] · скачан: 268 раз
Статус: √ проверено
Размер: 13.26 GB
Как cкачать? Как скачать Полёт через торрент | UTorrent

% Раздел Тема Автор DL S | L
TNT serials [ 13.61 GB ] Полёт / Сезон: 1 / Серии: 1-8 из 8 [2021 HDTV 1080i] bober100 Скачать
2 | 2
TNT serials [ 4.98 GB ] Полёт / Сезон: 1 / Серии: 1-8 из 8 [2021 SATRip] bober100 Скачать
2 | 0
TNT serials [ 9.01 GB ] Полёт / Сезон: 1 / Серии: 1-8 из 8 [2021 WEBRip 720p ] bober100 Скачать
4 | 1
TNT serials [ 5.21 GB ] Полёт / Сезон: 1 / Серии: 1-8 из 8 [2021 WEBRip-AVC ] bober100 Скачать
7 | 0
TNT serials [ 4.69 GB ] Полёт / Сезон: 1 / Серии: 1-8 из 8 [2021 WEBRip ] bober100 Скачать
3 | 1


Последний раз редактировалось: bober100 (2021-02-04 18:36), всего редактировалось 5 раз(а)

28-11-2019 20:33  

Отключить всю рекламу на сайте


28-01-2021 10:28 Полёт Скачать торрент  

Только из Ефремова смотреть не буду.piratbit.org



28-01-2021 11:07 Полёт Скачать торрент  

Reanimus писал(а):

Только из Ефремова смотреть не буду.

ну и зря, актер-то неплохой. был. хотя.. пойду тоже назло мамке уши отморожу))piratbit.org



31-01-2021 14:59 Полёт Скачать торрент  

Гитлер тоже неплохой руководитель страны был.piratbit.org



31-01-2021 17:59 Полёт Скачать торрент  

Вторая серия - Мощно! Браво!
И пилот цепляет.
Третья - атмосферно-мело-драматично)))
Рефрейн сына - достойно!

Жду продолжения!piratbit.org



03-02-2021 14:59 Полёт Скачать торрент  

Да, вторая серия это очень сильно. Ну и Миша, талант не пропил, могет еще.piratbit.org



14-02-2021 05:17 Полёт Скачать торрент  

Отличный,сильный сериал.категорически рекомендуюpiratbit.org



    Дорогой пользователь! Огромная просьба, поблагодарите релизера, оцените раздачу и оставьте свои комментарий, если Вы скачали Полёт через торрент бесплатно! Внесите свою лепту в развитие PiratBit!
    Комментировать посты могут только пользователи прошедшие не сложную регистрацию
    Показать сообщения:    

    Полёт через торрент
    Скачать бесплатно Полёт
    Полёт скачать торрент
    Полёт смотреть онлайн
    Cкачать фильм Полёт бесплатно
    Полёт скачать торрент в хорошем качестве
    Полёт смотреть онлайн бесплатно в хорошем качестве


    Вы не можете начинать темы
    Вы не можете отвечать на сообщения
    Вы не можете редактировать свои сообщения
    Вы не можете удалять свои сообщения
    Вы не можете голосовать в опросах
    Вы не можете прикреплять файлы к сообщениям
    Вы можете скачивать файлы