1 сезон

3 сезон

iTunes

1

iTunes

DUB Netflix

iTunes

13

1 сезон

RePack

30

Deluxe

pack

Легкие деньги

ВАЖНО

ИГРА 18+

pack

RePack

MK11

RePack

jed

RePack

fifa19

RePack

RDR2

RePack

NEED FOR SPEED™ PAYBACK

4 сезон

9 сезон

Бесстыжие 9 сезон

Все сериалы

все сериалы на PB.wtf

RePack

FAR CRY 5

Anonymous, добрый день, мы не успеваем до 1 числа собрать деньги на оплату серверов, помогите нам пожалуйста в это трудное время. В качестве благодарности мы отключим Вам всю рекламу на сайте (укажите свой ник в строку Ваше имя)!

×
  
Magnet ссылка

Отпуск / Сезон: 1 / Серии: 1-19 из 19 + Фильм о фильме (Александр Бойков) [2021, Комедия, WEBRip, (Версия 18+)] piratbit.org

Отпуск через торрент piratbit.org

Раздают: 2 [ 9 KB/s ]
Размер: 6.84 GB | Добавлен: 3 мес. 16 д. назад | Торрент скачан:82 раза
Скачать  

01-02-2021 18:00 Отпуск Скачать торрент  

Отпуск
Год выпуска: 2021
Страна: Россия
Выпущено: 123 Продакшн, Телеканал ТНТ
Жанр: Комедия
Продолжительность: ~ 00:25:00 серия
Перевод: Не требуется
Субтитры: отсутствуют
Версия 18+. Внимание! Присутствует ненормативная лексика.

Режиссер: Александр Бойков



В ролях: Демис Карибидис, Павел Майков, Юлия Подозёрова, Кузьма Сапрыкин, Татьяна Догилева, Катрин Асси, Валентина Карнаухова, Арарат Кещян, Святослав Королев, Радислав Куцов, Сергей Епишев, Александр Волохов (II), Альбина Кабалина, Максим Винокуров, Амир Гурбанов, Денис Доронин, Елена Пономарёва, Владимир Паршенков, Виталий Гумеров, Артур Павленко, Кристина Арабина, Юлия Кубина, Алексей Бухтояров, Владимир Глушков (II)

Описание: Северяне Беляевы 11-й год подряд приезжают в Геленджик. Но этот отпуск не будет похож на остальные. Для главы семейства Севы это последний шанс спасти брак и доказать супруге, что он хороший отец и муж. Их сын Саша собирается сделать предложение Люсе — дочери дяди Бори, владельца гостевого дома, где остановились Беляевы. Дядя Боря вовсе не замечает северян, ведь у него свои проблемы — новая любовь, красавица Мадина, и ее ревнивый бывший — влиятельный бизнесмен Таймураз, который не готов отпустить Мадину. Это история двух семей, в каждой из которых люди борются за любовь.

Качество: WEBRip
Формат: AVI

Видео: XviD, ~ 1500 Кбит/с, 720x304
Аудио: 48.0 kHz, AC3 Dolby Digital, 2/0 (L,R) ch, ~ 192 kbps
скриншот  скриншот  скриншот  скриншот  скриншот  

Общее
Полное имя : C:\Otpusk.2021.WEB-DLRip.25Kuzmich\Otpusk.e01.WEB-DLRip.25Kuzmich.avi
Формат : AVI
Формат/Информация : Audio Video Interleave
Размер файла : 350 Мбайт
Продолжительность : 29 м. 10 с.
Общий поток : 1676 Кбит/сек
Программа кодирования : VirtualDubMod 1.5.10.3 | www.virtualdub-fr.org || (build 2550/release)
Библиотека кодирования : VirtualDubMod build 2550/release

Видео
Идентификатор : 0
Формат : MPEG-4 Visual
Профиль формата : Advanced Simple@L5
Настройки формата : BVOP1
Параметр BVOP формата : 1
Параметр QPel формата : Нет
Параметр GMC формата : Без точки перехода
Параметр матрицы формата : Default (MPEG)
Идентификатор кодека : XVID
Идентификатор кодека/Подсказка : XviD
Продолжительность : 29 м. 10 с.
Битрейт : 1474 Кбит/сек
Ширина : 720 пикселей
Высота : 304 пикселя
Соотношение сторон : 2,35:1
Частота кадров : 25,000 кадров/сек
Цветовое пространство : YUV
Субдискретизация насыщенности : 4:2:0
Битовая глубина : 8 бит
Тип развёртки : Прогрессивная
Метод сжатия : С потерями
Бит/(Пиксели*Кадры) : 0.269
Размер потока : 308 Мбайт (88%)
Библиотека кодирования : XviD 73

Аудио
Идентификатор : 1
Формат : AC-3
Формат/Информация : Audio Coding 3
Коммерческое название : Dolby Digital
Идентификатор кодека : 2000
Продолжительность : 29 м. 10 с.
Вид битрейта : Постоянный
Битрейт : 192 Кбит/сек
Каналы : 2 канала
ChannelLayout : L R
Частота : 48,0 КГц
Частота кадров : 31,250 кадров/сек (1536 SPF)
Битовая глубина : 16 бит
Метод сжатия : С потерями
Размер потока : 40,1 Мбайт (11%)
Выравнивание : Разделение по промежуткам
Продолжительность промежутка : 40 мс. (1,00 видеокадр)
Время предзагрузки промежутка : 500 мс.
ServiceKind/String : Complete Main

Когда раздача ведётся путём добавления новых серий, при каждом добавлении создётся новый торрент. Чтобы начать докачку новой серии, пользователям необходимо сделать следующее:
(1) остановить скачивание,
(2) удалить старый торрент у себя из клиента (старые серии удалять не надо),
(3) скачать новый торрент и запустить его у себя в клиенте вместо старого, при этом указать клиенту путь в старую папку, куда и должно происходить скачивание новых серий.
Ваш клиент при этом должен произвести хеширование (проверку) старой папки (если не производит сам - помогите ему сделать это), и будет докачивать только те серии, которых у вас ещё нет. Старые серии при этом не удаляются, а продолжают раздаваться!
Eсли вы уже удалили старые серии, то предотвратить повторную закачку старых серий можно, отжав галочку в соответсвующих местах при запуске нового торрента. По возможности, желательно не удалять старые серии как можно дольше, чтобы релизёр не столько продолжал раздавать старые серии, а смог сконцентрироваться на новых.
piratbit.org



Скачать Отпуск через торрент https://img11.lostpic.net/2021/02/01/0f9ba80cfbbf32bf1089c3e895f9509b.jpg Скачать фильм Отпуск через торрент бесплантно в хорошем качестве Описание: Северяне Беляевы 11-й год подряд приезжают в Геленджик. Но этот отпуск не будет похож на остальные. Для главы семейства Севы это ... 10 10 10
Торрент: Зарегистрирован [2021-03-05 14:36] · скачан: 82 раз
Статус: √ проверено
Размер: 6.84 GB
Как cкачать? Как скачать Отпуск через торрент | UTorrent

% Раздел Тема Автор DL S | L
TNT serials [ 17.37 GB ] Отпуск / Сезон: 1 / Серии: 1-19 из 19 + Фильм о фильме [2021 WEBRip 1080p ] bober100 Скачать
5 | 0
TNT serials [ 11.81 GB ] Отпуск / Сезон: 1 / Серии: 1-19 из 19 + Фильм о фильме [2021 WEBRip 720p ] bober100 Скачать
5 | 1
TNT serials [ 6.67 GB ] Отпуск / Сезон: 1 / Серии: 1-19 из 19 + Фильм о фильме [2021 WEBRip-AVC ] bober100 Скачать
3 | 0


Последний раз редактировалось: bober100 (2021-03-05 14:36), всего редактировалось 4 раз(а)

28-11-2019 20:33  

Отключить всю рекламу на сайте

26-02-2021 10:35 Отпуск Скачать торрент  

bober100, приветствую! 14-я, 15-я будут?piratbit.org



    Дорогой пользователь! Огромная просьба, поблагодарите релизера, оцените раздачу и оставьте свои комментарий, если Вы скачали Отпуск через торрент бесплатно! Внесите свою лепту в развитие PiratBit!
    Комментировать посты могут только пользователи прошедшие не сложную регистрацию
    Показать сообщения:    

    Отпуск через торрент
    Скачать бесплатно Отпуск
    Отпуск скачать торрент
    Отпуск смотреть онлайн
    Cкачать фильм Отпуск бесплатно
    Отпуск скачать торрент в хорошем качестве
    Отпуск смотреть онлайн бесплатно в хорошем качестве


    Вы не можете начинать темы
    Вы не можете отвечать на сообщения
    Вы не можете редактировать свои сообщения
    Вы не можете удалять свои сообщения
    Вы не можете голосовать в опросах
    Вы не можете прикреплять файлы к сообщениям
    Вы можете скачивать файлы