1 сезон

3 сезон

iTunes

1

iTunes

DUB Netflix

iTunes

13

1 сезон

RePack

30

Deluxe

pack

Легкие деньги

ВАЖНО

ИГРА 18+

pack

RePack

MK11

RePack

jed

RePack

fifa19

RePack

RDR2

RePack

NEED FOR SPEED™ PAYBACK

4 сезон

9 сезон

Бесстыжие 9 сезон

Все сериалы

все сериалы на PB.wtf

RePack

FAR CRY 5

Anonymous, доброе утро, мы не успеваем до 1 числа собрать деньги на оплату серверов, помогите нам пожалуйста в это трудное время. В качестве благодарности мы отключим Вам всю рекламу на сайте (укажите свой ник в строку Ваше имя)!

×
  
Magnet ссылка

Отпуск / Сезон: 1 / Серии: 1-19 из 19 + Фильм о фильме (Александр Бойков) [2021, Комедия, WEBRip 1080p, (Версия 18+)] piratbit.org

Отпуск через торрент piratbit.org

Раздают: 4 [ 0 KB/s ]
Размер: 17.37 GB | Добавлен: 3 мес. 13 д. назад | Торрент скачан:137 раз
Скачать  

01-02-2021 18:38 Отпуск Скачать торрент  

Отпуск
Год выпуска: 2021
Страна: Россия
Выпущено: 123 Продакшн, Телеканал ТНТ
Жанр: Комедия
Продолжительность: ~ 00:25:00 серия
Перевод: Не требуется
Субтитры: отсутствуют
Версия 18+. Внимание! Присутствует ненормативная лексика.

Режиссер: Александр Бойков



В ролях: Демис Карибидис, Павел Майков, Юлия Подозёрова, Кузьма Сапрыкин, Татьяна Догилева, Катрин Асси, Валентина Карнаухова, Арарат Кещян, Святослав Королев, Радислав Куцов, Сергей Епишев, Александр Волохов (II), Альбина Кабалина, Максим Винокуров, Амир Гурбанов, Денис Доронин, Елена Пономарёва, Владимир Паршенков, Виталий Гумеров, Артур Павленко, Кристина Арабина, Юлия Кубина, Алексей Бухтояров, Владимир Глушков (II)

Описание: Северяне Беляевы 11-й год подряд приезжают в Геленджик. Но этот отпуск не будет похож на остальные. Для главы семейства Севы это последний шанс спасти брак и доказать супруге, что он хороший отец и муж. Их сын Саша собирается сделать предложение Люсе — дочери дяди Бори, владельца гостевого дома, где остановились Беляевы. Дядя Боря вовсе не замечает северян, ведь у него свои проблемы — новая любовь, красавица Мадина, и ее ревнивый бывший — влиятельный бизнесмен Таймураз, который не готов отпустить Мадину. Это история двух семей, в каждой из которых люди борются за любовь.

Качество: WEBRip 1080p
Формат: MKV

Видео: MPEG4 AVC Video, H264, 2.40:1, 1920x800, 25 fps, ~4500 kbps, 0.117 bit/pixel
Аудио: 48.0 kHz, AC3 Dolby Digital, 2/0 (L,R) ch, ~ 192 kbps
скриншот  скриншот  скриншот  скриншот  скриншот  

General
Unique ID : 186085556788098124919123226491089973879 (0x8BFEC64C6C32395D972487C3BBD1F277)
Complete name : D:\Otpusk.2021.WEB-DL.(1080p).Getty\Otpusk.e01.2021.WEB-DL.(1080p).Getty.mkv
Format : Matroska
Format version : Version 4 / Version 2
File size : 975 MiB
Duration : 29 min 10 s
Overall bit rate mode : Variable
Overall bit rate : 4 671 kb/s
Movie name : Otpusk.e01.2021.WEB-DL.(1080p).Getty
Encoded date : UTC 2021-02-01 17:33:46
Writing application : mkvmerge v7.8.0 ('River Man') 32bit built on Mar 27 2015 16:18:02
Writing library : libebml v1.3.1 + libmatroska v1.4.2

Video
ID : 1
Format : AVC
Format/Info : Advanced Video Codec
Format profile : High@L4
Format settings : CABAC / 1 Ref Frames
Format settings, CABAC : Yes
Format settings, ReFrames : 1 frame
Format settings, GOP : M=1, N=50
Codec ID : V_MPEG4/ISO/AVC
Duration : 29 min 10 s
Bit rate mode : Variable
Bit rate : 4 500 kb/s
Width : 1 920 pixels
Height : 800 pixels
Display aspect ratio : 2.40:1
Frame rate mode : Constant
Frame rate : 25.000 FPS
Color space : YUV
Chroma subsampling : 4:2:0
Bit depth : 8 bits
Scan type : Progressive
Bits/(Pixel*Frame) : 0.117
Stream size : 934 MiB (96%)
Default : Yes
Forced : No

Audio
ID : 2
Format : AC-3
Format/Info : Audio Coding 3
Codec ID : A_AC3
Duration : 29 min 10 s
Bit rate mode : Constant
Bit rate : 192 kb/s
Channel(s) : 2 channels
Channel positions : Front: L R
Sampling rate : 48.0 kHz
Frame rate : 31.250 FPS (1536 SPF)
Bit depth : 16 bits
Compression mode : Lossy
Stream size : 40.1 MiB (4%)
Service kind : Complete Main
Default : Yes
Forced : No

Когда раздача ведётся путём добавления новых серий, при каждом добавлении создётся новый торрент. Чтобы начать докачку новой серии, пользователям необходимо сделать следующее:
(1) остановить скачивание,
(2) удалить старый торрент у себя из клиента (старые серии удалять не надо),
(3) скачать новый торрент и запустить его у себя в клиенте вместо старого, при этом указать клиенту путь в старую папку, куда и должно происходить скачивание новых серий.
Ваш клиент при этом должен произвести хеширование (проверку) старой папки (если не производит сам - помогите ему сделать это), и будет докачивать только те серии, которых у вас ещё нет. Старые серии при этом не удаляются, а продолжают раздаваться!
Eсли вы уже удалили старые серии, то предотвратить повторную закачку старых серий можно, отжав галочку в соответсвующих местах при запуске нового торрента. По возможности, желательно не удалять старые серии как можно дольше, чтобы релизёр не столько продолжал раздавать старые серии, а смог сконцентрироваться на новых.
piratbit.org



Скачать Отпуск через торрент https://img11.lostpic.net/2021/02/01/0f9ba80cfbbf32bf1089c3e895f9509b.jpg Скачать фильм Отпуск через торрент бесплантно в хорошем качестве Описание: Северяне Беляевы 11-й год подряд приезжают в Геленджик. Но этот отпуск не будет похож на остальные. Для главы семейства Севы это ... 10 10 33
Торрент: Зарегистрирован [2021-03-05 14:38] · скачан: 137 раз
Статус: √ проверено
Размер: 17.37 GB
Как cкачать? Как скачать Отпуск через торрент | UTorrent

% Раздел Тема Автор DL S | L
TNT serials [ 11.81 GB ] Отпуск / Сезон: 1 / Серии: 1-19 из 19 + Фильм о фильме [2021 WEBRip 720p ] bober100 Скачать
3 | 1
TNT serials [ 6.84 GB ] Отпуск / Сезон: 1 / Серии: 1-19 из 19 + Фильм о фильме [2021 WEBRip ] bober100 Скачать
1 | 0
TNT serials [ 6.67 GB ] Отпуск / Сезон: 1 / Серии: 1-19 из 19 + Фильм о фильме [2021 WEBRip-AVC ] bober100 Скачать
1 | 0


Последний раз редактировалось: bober100 (2021-03-05 14:38), всего редактировалось 15 раз(а)

28-11-2019 20:33  

Отключить всю рекламу на сайте

03-02-2021 13:33 Отпуск Скачать торрент  

DToretto777 писал(а):

очередное недокино

Вполне ржачное и нормальное кинцо! Всем рекомендую для вечернего отдыха после работы!piratbit.org



17-03-2021 11:39 Отпуск Скачать торрент  

согласен, легкое юморное кино )piratbit.org



    Дорогой пользователь! Огромная просьба, поблагодарите релизера, оцените раздачу и оставьте свои комментарий, если Вы скачали Отпуск через торрент бесплатно! Внесите свою лепту в развитие PiratBit!
    Комментировать посты могут только пользователи прошедшие не сложную регистрацию
    Показать сообщения:    

    Отпуск через торрент
    Скачать бесплатно Отпуск
    Отпуск скачать торрент
    Отпуск смотреть онлайн
    Cкачать фильм Отпуск бесплатно
    Отпуск скачать торрент в хорошем качестве
    Отпуск смотреть онлайн бесплатно в хорошем качестве


    Вы не можете начинать темы
    Вы не можете отвечать на сообщения
    Вы не можете редактировать свои сообщения
    Вы не можете удалять свои сообщения
    Вы не можете голосовать в опросах
    Вы не можете прикреплять файлы к сообщениям
    Вы можете скачивать файлы