1 сезон

3 сезон

iTunes

1

iTunes

DUB Netflix

iTunes

13

1 сезон

RePack

30

Deluxe

pack

Легкие деньги

ВАЖНО

ИГРА 18+

pack

RePack

MK11

RePack

jed

RePack

fifa19

RePack

RDR2

RePack

NEED FOR SPEED™ PAYBACK

4 сезон

9 сезон

Бесстыжие 9 сезон

Все сериалы

все сериалы на PB.wtf

RePack

FAR CRY 5

Anonymous, добрый день, мы не успеваем до 1 числа собрать деньги на оплату серверов, помогите нам пожалуйста в это трудное время. В качестве благодарности мы отключим Вам всю рекламу на сайте (укажите свой ник в строку Ваше имя)!

×
  
Magnet ссылка

Отпуск / Сезон: 1 / Серии: 1-19 из 19 + Фильм о фильме (Александр Бойков) [2021, Комедия, WEBRip-AVC, (Версия 18+)] piratbit.org

Отпуск через торрент piratbit.org

Раздают: 2 [ 0 KB/s ]
Размер: 6.67 GB | Добавлен: 3 мес. 12 д. назад | Торрент скачан:126 раз
Скачать  

02-02-2021 03:30 Отпуск Скачать торрент  

Отпуск
Год выпуска: 2021
Страна: Россия
Выпущено: 123 Продакшн, Телеканал ТНТ
Жанр: Комедия
Продолжительность: ~ 00:25:00 серия
Перевод: Не требуется
Субтитры: отсутствуют
Версия 18+. Внимание! Присутствует ненормативная лексика.

Режиссер: Александр Бойков



В ролях: Демис Карибидис, Павел Майков, Юлия Подозёрова, Кузьма Сапрыкин, Татьяна Догилева, Катрин Асси, Валентина Карнаухова, Арарат Кещян, Святослав Королев, Радислав Куцов, Сергей Епишев, Александр Волохов (II), Альбина Кабалина, Максим Винокуров, Амир Гурбанов, Денис Доронин, Елена Пономарёва, Владимир Паршенков, Виталий Гумеров, Артур Павленко, Кристина Арабина, Юлия Кубина, Алексей Бухтояров, Владимир Глушков (II)

Описание: Северяне Беляевы 11-й год подряд приезжают в Геленджик. Но этот отпуск не будет похож на остальные. Для главы семейства Севы это последний шанс спасти брак и доказать супруге, что он хороший отец и муж. Их сын Саша собирается сделать предложение Люсе — дочери дяди Бори, владельца гостевого дома, где остановились Беляевы. Дядя Боря вовсе не замечает северян, ведь у него свои проблемы — новая любовь, красавица Мадина, и ее ревнивый бывший — влиятельный бизнесмен Таймураз, который не готов отпустить Мадину. Это история двух семей, в каждой из которых люди борются за любовь.

Качество: WEBRip-AVC
Формат: MKV

Видео: MPEG-4 AVC, ~ 1600 Кбит/с, 1024x432, 25 кадр/с
Аудио: 48.0 kHz, AC3 Dolby Digital, 2/0 (L,R) ch, ~ 192 kbps
скриншот  скриншот  скриншот  скриншот  скриншот  

General
Unique ID : 224997878152271912866895029921546259502 (0xA94503DD4FE7C3738102AEAEC2644C2E)
Complete name : F:\Отпуск.(2021).WEBRip.(AVC).Files-x\01.Otpusk.(2021).WEBRip.(AVC).by.Серый1779.Files-x.mkv
Format : Matroska
Format version : Version 2
File size : 374 MiB
Duration : 29 min 10 s
Overall bit rate : 1 792 kb/s
Encoded date : UTC 2021-02-01 20:29:41
Writing application : mkvmerge v7.8.0 ('River Man') 32bit built on Apr 3 2015 12:11:22
Writing library : libebml v1.3.1 + libmatroska v1.4.2

Video
ID : 1
Format : AVC
Format/Info : Advanced Video Codec
Format profile : High@L4.1
Format settings : CABAC / 9 Ref Frames
Format settings, CABAC : Yes
Format settings, RefFrames : 9 frames
Codec ID : V_MPEG4/ISO/AVC
Duration : 29 min 10 s
Bit rate : 1 600 kb/s
Width : 1 024 pixels
Height : 432 pixels
Display aspect ratio : 2.40:1
Frame rate mode : Constant
Frame rate : 25.000 FPS
Color space : YUV
Chroma subsampling : 4:2:0
Bit depth : 8 bits
Scan type : Progressive
Bits/(Pixel*Frame) : 0.145
Stream size : 327 MiB (87%)
Writing library : x264 core 146 r2538 121396c
Encoding settings : cabac=1 / ref=9 / deblock=1:-2:-1 / analyse=0x3:0x133 / me=umh / subme=9 / psy=1 / psy_rd=1.00:0.15 / mixed_ref=1 / me_range=32 / chroma_me=1 / trellis=2 / 8x8dct=1 / cqm=0 / deadzone=21,11 / fast_pskip=0 / chroma_qp_offset=-3 / threads=18 / lookahead_threads=3 / sliced_threads=0 / nr=0 / decimate=1 / interlaced=0 / bluray_compat=0 / constrained_intra=0 / bframes=9 / b_pyramid=2 / b_adapt=2 / b_bias=0 / direct=1 / weightb=1 / open_gop=0 / weightp=2 / keyint=250 / keyint_min=25 / scenecut=40 / intra_refresh=0 / rc=2pass / mbtree=0 / bitrate=1600 / ratetol=1.0 / qcomp=0.60 / qpmin=0 / qpmax=69 / qpstep=4 / cplxblur=20.0 / qblur=0.5 / ip_ratio=1.40 / pb_ratio=1.30 / aq=2:1.00
Default : Yes
Forced : No
Color range : Limited
Color primaries : BT.709
Transfer characteristics : BT.709
Matrix coefficients : BT.709

Audio
ID : 2
Format : AC-3
Format/Info : Audio Coding 3
Format settings, Endianness : Big
Codec ID : A_AC3
Duration : 29 min 10 s
Bit rate mode : Constant
Bit rate : 192 kb/s
Channel(s) : 2 channels
Channel positions : Front: L R
Sampling rate : 48.0 kHz
Frame rate : 31.250 FPS (1536 SPF)
Bit depth : 16 bits
Compression mode : Lossy
Stream size : 40.1 MiB (11%)
Service kind : Complete Main
Default : Yes
Forced : No

Когда раздача ведётся путём добавления новых серий, при каждом добавлении создётся новый торрент. Чтобы начать докачку новой серии, пользователям необходимо сделать следующее:
(1) остановить скачивание,
(2) удалить старый торрент у себя из клиента (старые серии удалять не надо),
(3) скачать новый торрент и запустить его у себя в клиенте вместо старого, при этом указать клиенту путь в старую папку, куда и должно происходить скачивание новых серий.
Ваш клиент при этом должен произвести хеширование (проверку) старой папки (если не производит сам - помогите ему сделать это), и будет докачивать только те серии, которых у вас ещё нет. Старые серии при этом не удаляются, а продолжают раздаваться!
Eсли вы уже удалили старые серии, то предотвратить повторную закачку старых серий можно, отжав галочку в соответсвующих местах при запуске нового торрента. По возможности, желательно не удалять старые серии как можно дольше, чтобы релизёр не столько продолжал раздавать старые серии, а смог сконцентрироваться на новых.
piratbit.org



Скачать Отпуск через торрент https://i114.fastpic.ru/big/2021/0201/b3/d14750020410d9842419ca32144053b3.jpg Скачать фильм Отпуск через торрент бесплантно в хорошем качестве Описание: Северяне Беляевы 11-й год подряд приезжают в Геленджик. Но этот отпуск не будет похож на остальные. Для главы семейства Севы это ... 10 10 18
Торрент: Зарегистрирован [2021-03-05 14:37] · скачан: 126 раз
Статус: √ проверено
Размер: 6.67 GB
Как cкачать? Как скачать Отпуск через торрент | UTorrent

% Раздел Тема Автор DL S | L
TNT serials [ 17.37 GB ] Отпуск / Сезон: 1 / Серии: 1-19 из 19 + Фильм о фильме [2021 WEBRip 1080p ] bober100 Скачать
5 | 0
TNT serials [ 11.81 GB ] Отпуск / Сезон: 1 / Серии: 1-19 из 19 + Фильм о фильме [2021 WEBRip 720p ] bober100 Скачать
2 | 2
TNT serials [ 6.84 GB ] Отпуск / Сезон: 1 / Серии: 1-19 из 19 + Фильм о фильме [2021 WEBRip ] bober100 Скачать
3 | 0

28-11-2019 20:33  

Отключить всю рекламу на сайте



    Дорогой пользователь! Огромная просьба, поблагодарите релизера, оцените раздачу и оставьте свои комментарий, если Вы скачали Отпуск через торрент бесплатно! Внесите свою лепту в развитие PiratBit!
    Комментировать посты могут только пользователи прошедшие не сложную регистрацию
    Показать сообщения:    

    Отпуск через торрент
    Скачать бесплатно Отпуск
    Отпуск скачать торрент
    Отпуск смотреть онлайн
    Cкачать фильм Отпуск бесплатно
    Отпуск скачать торрент в хорошем качестве
    Отпуск смотреть онлайн бесплатно в хорошем качестве


    Вы не можете начинать темы
    Вы не можете отвечать на сообщения
    Вы не можете редактировать свои сообщения
    Вы не можете удалять свои сообщения
    Вы не можете голосовать в опросах
    Вы не можете прикреплять файлы к сообщениям
    Вы можете скачивать файлы