1 сезон

3 сезон

iTunes

1

iTunes

DUB Netflix

iTunes

13

1 сезон

RePack

30

Deluxe

pack

Легкие деньги

ВАЖНО

ИГРА 18+

pack

RePack

MK11

RePack

jed

RePack

fifa19

RePack

RDR2

RePack

NEED FOR SPEED™ PAYBACK

4 сезон

9 сезон

Бесстыжие 9 сезон

Все сериалы

все сериалы на PB.wtf

RePack

FAR CRY 5

Anonymous, доброй ночи, мы не успеваем до 1 числа собрать деньги на оплату серверов, помогите нам пожалуйста в это трудное время. В качестве благодарности мы отключим Вам всю рекламу на сайте (укажите свой ник в строку Ваше имя)!

×
  
Magnet ссылка

Отпуск / Сезон: 1 / Серии: 1-19 из 19 (Александр Бойков) [2021, Комедия, HDTV 1080i] piratbit.org

Отпуск через торрент piratbit.org

Качают: 1 [ 0 KB/s ]
Размер: 22.96 GB | Добавлен: 3 мес. 14 д. назад | Торрент скачан:65 раз
Скачать  

02-02-2021 07:43 Отпуск Скачать торрент  

Отпуск
Год выпуска: 2021
Страна: Россия
Выпущено: 123 Продакшн, Телеканал ТНТ
Жанр: Комедия
Продолжительность: ~ 00:25:00 серия
Перевод: Не требуется
Субтитры: отсутствуют

Режиссер: Александр Бойков



В ролях: Демис Карибидис, Павел Майков, Юлия Подозёрова, Кузьма Сапрыкин, Татьяна Догилева, Катрин Асси, Валентина Карнаухова, Арарат Кещян, Святослав Королев, Радислав Куцов, Сергей Епишев, Александр Волохов (II), Альбина Кабалина, Максим Винокуров, Амир Гурбанов, Денис Доронин, Елена Пономарёва, Владимир Паршенков, Виталий Гумеров, Артур Павленко, Кристина Арабина, Юлия Кубина, Алексей Бухтояров, Владимир Глушков (II)

Описание: Северяне Беляевы 11-й год подряд приезжают в Геленджик. Но этот отпуск не будет похож на остальные. Для главы семейства Севы это последний шанс спасти брак и доказать супруге, что он хороший отец и муж. Их сын Саша собирается сделать предложение Люсе — дочери дяди Бори, владельца гостевого дома, где остановились Беляевы. Дядя Боря вовсе не замечает северян, ведь у него свои проблемы — новая любовь, красавица Мадина, и ее ревнивый бывший — влиятельный бизнесмен Таймураз, который не готов отпустить Мадину. Это история двух семей, в каждой из которых люди борются за любовь.

Качество: HDTV 1080i
Формат: TS

Видео: MPEG-4 AVC, ~ 7700 Кбит/с, 1920x1080, 25 кадр/с
Аудио: Русский (MP2, 2 ch, 192 Кбит/с)
скриншот  скриншот  скриншот  скриншот  

Общее
Идентификатор : 1 (0x1)
Полное имя : C:\Otpusk.2021.HDTV.(1080i).ExKinoRay\Otpusk.E01.2021.HDTV.(1080i).ExKinoRay.ts
Формат : MPEG-TS
Размер файла : 1,43 Гбайт
Продолжительность : 24 м. 46 с.
Режим общего битрейта : Переменный
Общий поток : 8260 Кбит/сек

Видео
Идентификатор : 211 (0xD3)
Идентификатор меню : 2207 (0x89F)
Формат : AVC
Формат/Информация : Advanced Video Codec
Профиль формата : High@L4
Настройки формата : CABAC / 4 Ref Frames
Параметр CABAC формата : Да
Параметр RefFrames формата : 4 кадра
Идентификатор кодека : 27
Продолжительность : 24 м. 46 с.
Битрейт : 7658 Кбит/сек
Ширина : 1920 пикселей
Высота : 1080 пикселей
Соотношение сторон : 16:9
Частота кадров : 25,000 кадров/сек
Стандарт вещания : Component
Цветовое пространство : YUV
Субдискретизация насыщенности : 4:2:0
Битовая глубина : 8 бит
Тип развёртки : Чересстрочная
Метод сохранения типа развёртки : Раздельные поля
Порядок развёртки : Верхнее поле первое
Бит/(Пиксели*Кадры) : 0.148
Размер потока : 1,33 Гбайт (93%)
Цветовой диапазон : Limited
Основные цвета : BT.709
Характеристики трансфера : BT.709
Коэффициенты матрицы : BT.709

Аудио
Идентификатор : 221 (0xDD)
Идентификатор меню : 2207 (0x89F)
Формат : MPEG Audio
Версия формата : Version 1
Профиль формата : Layer 2
Идентификатор кодека : 3
Продолжительность : 24 м. 46 с.
Вид битрейта : Постоянный
Битрейт : 192 Кбит/сек
Каналы : 2 канала
Частота : 48,0 КГц
Частота кадров : 41,667 кадра/сек (1152 SPF)
Метод сжатия : С потерями
Задержка видео : -40 мс.
Размер потока : 34,0 Мбайт (2%)
Язык : Russian

Когда раздача ведётся путём добавления новых серий, при каждом добавлении создётся новый торрент. Чтобы начать докачку новой серии, пользователям необходимо сделать следующее:
(1) остановить скачивание,
(2) удалить старый торрент у себя из клиента (старые серии удалять не надо),
(3) скачать новый торрент и запустить его у себя в клиенте вместо старого, при этом указать клиенту путь в старую папку, куда и должно происходить скачивание новых серий.
Ваш клиент при этом должен произвести хеширование (проверку) старой папки (если не производит сам - помогите ему сделать это), и будет докачивать только те серии, которых у вас ещё нет. Старые серии при этом не удаляются, а продолжают раздаваться!
Eсли вы уже удалили старые серии, то предотвратить повторную закачку старых серий можно, отжав галочку в соответсвующих местах при запуске нового торрента. По возможности, желательно не удалять старые серии как можно дольше, чтобы релизёр не столько продолжал раздавать старые серии, а смог сконцентрироваться на новых.
piratbit.org



Скачать Отпуск через торрент https://i114.fastpic.ru/big/2021/0201/b3/d14750020410d9842419ca32144053b3.jpg Скачать фильм Отпуск через торрент бесплантно в хорошем качестве Описание: Северяне Беляевы 11-й год подряд приезжают в Геленджик. Но этот отпуск не будет похож на остальные. Для главы семейства Севы это ... 9.8 10 13
Торрент: Зарегистрирован [2021-03-05 14:39] · скачан: 65 раз
Статус: √ проверено
Размер: 22.96 GB
Как cкачать? Как скачать Отпуск через торрент | UTorrent

% Раздел Тема Автор DL S | L
TNT serials [ 17.37 GB ] Отпуск / Сезон: 1 / Серии: 1-19 из 19 + Фильм о фильме [2021 WEBRip 1080p ] bober100 Скачать
5 | 0
TNT serials [ 6.28 GB ] Отпуск / Сезон: 1 / Серии: 1-19 из 19 [2021 SATRip] bober100 Скачать
1 | 2
TNT serials [ 11.81 GB ] Отпуск / Сезон: 1 / Серии: 1-19 из 19 + Фильм о фильме [2021 WEBRip 720p ] bober100 Скачать
3 | 2
TNT serials [ 6.84 GB ] Отпуск / Сезон: 1 / Серии: 1-19 из 19 + Фильм о фильме [2021 WEBRip ] bober100 Скачать
3 | 0
TNT serials [ 6.67 GB ] Отпуск / Сезон: 1 / Серии: 1-19 из 19 + Фильм о фильме [2021 WEBRip-AVC ] bober100 Скачать
4 | 0

28-11-2019 20:33  

Отключить всю рекламу на сайте

11-04-2021 06:31 Отпуск Скачать торрент  

не понял а почему скорости нет? фильм никому не нравится что ли? прикольный же...piratbit.org



    Дорогой пользователь! Огромная просьба, поблагодарите релизера, оцените раздачу и оставьте свои комментарий, если Вы скачали Отпуск через торрент бесплатно! Внесите свою лепту в развитие PiratBit!
    Комментировать посты могут только пользователи прошедшие не сложную регистрацию
    Показать сообщения:    

    Отпуск через торрент
    Скачать бесплатно Отпуск
    Отпуск скачать торрент
    Отпуск смотреть онлайн
    Cкачать фильм Отпуск бесплатно
    Отпуск скачать торрент в хорошем качестве
    Отпуск смотреть онлайн бесплатно в хорошем качестве


    Вы не можете начинать темы
    Вы не можете отвечать на сообщения
    Вы не можете редактировать свои сообщения
    Вы не можете удалять свои сообщения
    Вы не можете голосовать в опросах
    Вы не можете прикреплять файлы к сообщениям
    Вы можете скачивать файлы