Достать ножи: Стеклянная луковица

MVO

Добыча

Дубляж

Уэнсдэй

1 сезон

Тор

Дубляж

13 клиническая

1 сезон

Жестокая ночь

MVO

Одни из нас

1 сезон

Deluxe

pack

Рекомендуем

30

Пиратка

ВАЖНО

ВАЖНО

Ghostwire

Пиратка

jed

RePack

nioh2

RePack

RDR2

RePack

NEED FOR SPEED™ PAYBACK

RePack

скачать торрент

Кинопоиск HD

Острые козырьки 6 сезон

6 сезон

FAR CRY 6

RePack

скачать торрент

Лицензия

скачать торрент

MVO

1

1 сезон

скачать торрент

1 сезон

скачать торрент

Лицензия

  

Пустой человек / The Empty Man (Дэвид Прайор) [2020, Детектив, ужасы, UHD WEB-DL 2160p] MVO [iTunes]

Пустой человек через торрент piratbit.org

Раздают: 1 [ 0 KB/s ]
Размер: 15.18 GB | Добавлен: 1 год 11 мес. назад | Торрент скачан:127 раз
Смотреть онлайн | Скачать | Поддержите нас   

03-02-2021 14:10 Пустой человек Скачать торрент  

Пустой человек | The Empty Man
Год выпуска: 2020
Страна: США, ЮАР, Великобритания
Студия: Boom! Studios, Out of Africa Entertainment
Жанр: Детектив, ужасы
Продолжительность: 02:16:53
Перевод: Профессиональный (многоголосый) | iTunes
Субтитры: Английские

Режиссер: Дэвид Прайор

rating

В ролях: Джеймс Бэдж Дэйл, Стивен Рут, Джоэл Кортни, Марин Айрлэнд, Раснит Каур, Аарон Пул, Роберт Арамайо, Саманта Логан, Эван Йоникит, Адам Фергюсон, Роберт Коуттс, Роберт Ли Дэвис, Коннер Даудс, Джессика Маттен, Рон Кэнада

Описание: В 1995 году, путешествуя по горам Бутана, один из четырёх американских туристов провалился в странную пещеру и как будто впал в оцепенение. Судьба его товарищей была печальна. В 2018 году в штате Миссури бывший полицейский Джеймс Ласомбра, тяжело переживающий гибель жены и маленького сына, берётся разыскивать пропавшую старшеклассницу Аманду. Он выясняет, что недавно она в компании друзей исполнила на мосту ритуал, якобы призывающий Пустого человека. Никто в эту городскую легенду не верит, но вскоре Джеймс обнаруживает тела друзей Аманды под тем самым мостом, а сама девушка оказывается как-то связана с загадочной организацией.

Качество: UHD WEB-DL 2160p
Формат: MKV

Видео: 3840x2160 at 23.976 fps, MPEG-H HEVC HDR Video, ~ 14800 kbps avg
Аудио #01: 48 kHz, AC3, 5.1, 384 Kbps | iTunes | RUS |
Аудио #02: 48 kHz, E-AC3, 5.1, 640 Kbps | Оригинал | ENG |
скриншот  скриншот  скриншот  скриншот  скриншот  

General
Unique ID : 39072998495444188823084949659228070325 (0x1D652F8F67B10D8650467D7FCA1061B5)
Complete name : D:VideoThe.Empty.Man.2020.WEB-DL.2160p.HDR.seleZen.mkv
Format : Matroska
Format version : Version 4
File size : 15.2 GiB
Duration : 2 h 16 min
Overall bit rate : 15.9 Mb/s
Movie name : The Empty Man 2020 from seleZen
Encoded date : UTC 2021-02-04 05:02:44
Writing application : mkvmerge v52.0.0 ('Secret For The Mad') 64-bit
Writing library : libebml v1.4.1 + libmatroska v1.6.2

Video
ID : 1
Format : HEVC
Format/Info : High Efficiency Video Coding
Format profile : Main 10@L5.1@Main
Codec ID : V_MPEGH/ISO/HEVC
Duration : 2 h 16 min
Bit rate : 14.8 Mb/s
Width : 3 840 pixels
Height : 2 160 pixels
Display aspect ratio : 16:9
Frame rate mode : Constant
Frame rate : 23.976 (24000/1001) FPS
Color space : YUV
Chroma subsampling : 4:2:0 (Type 2)
Bit depth : 10 bits
Bits/(Pixel*Frame) : 0.075
Stream size : 14.2 GiB (94%)
Language : English
Default : Yes
Forced : No
Color range : Limited
Color primaries : BT.2020
Transfer characteristics : PQ
Matrix coefficients : BT.2020 non-constant

Audio #1
ID : 2
Format : AC-3
Format/Info : Audio Coding 3
Commercial name : Dolby Digital
Codec ID : A_AC3
Duration : 2 h 16 min
Bit rate mode : Constant
Bit rate : 384 kb/s
Channel(s) : 6 channels
Channel layout : L R C LFE Ls Rs
Sampling rate : 48.0 kHz
Frame rate : 31.250 FPS (1536 SPF)
Compression mode : Lossy
Stream size : 376 MiB (2%)
Title : MVO
Language : Russian
Service kind : Complete Main
Default : Yes
Forced : Yes

Audio #2
ID : 3
Format : E-AC-3
Format/Info : Enhanced AC-3
Commercial name : Dolby Digital Plus
Codec ID : A_EAC3
Duration : 2 h 16 min
Bit rate mode : Constant
Bit rate : 640 kb/s
Channel(s) : 6 channels
Channel layout : L R C LFE Ls Rs
Sampling rate : 48.0 kHz
Frame rate : 31.250 FPS (1536 SPF)
Compression mode : Lossy
Stream size : 627 MiB (4%)
Title : Original
Language : English
Service kind : Complete Main
Default : No
Forced : No

Text #1
ID : 4
Format : UTF-8
Codec ID : S_TEXT/UTF8
Codec ID/Info : UTF-8 Plain Text
Duration : 2 h 8 min
Bit rate : 31 b/s
Count of elements : 1163
Stream size : 29.6 KiB (0%)
Title : Full
Language : English
Default : No
Forced : No

Text #2
ID : 5
Format : UTF-8
Codec ID : S_TEXT/UTF8
Codec ID/Info : UTF-8 Plain Text
Duration : 2 h 10 min
Bit rate : 39 b/s
Count of elements : 1489
Stream size : 37.8 KiB (0%)
Title : SDH
Language : English
Default : No
Forced : No

Menu
00:00:00.000 : :1
00:08:48.000 : :2
00:15:00.000 : :3
00:19:40.000 : :4
00:22:29.000 : :5
00:30:23.000 : :6
00:36:28.000 : :7
00:46:31.000 : :8
00:53:22.000 : :9
00:59:00.000 : :10
01:08:08.000 : :11
01:17:00.000 : :12
01:21:07.000 : :13
01:24:06.000 : :14
01:30:23.000 : :15
01:34:41.000 : :16
01:40:18.000 : :17
01:42:41.000 : :18
01:46:16.000 : :19
01:49:45.000 : :20
01:53:31.000 : :21
01:56:39.000 : :22
02:02:09.000 : :23
02:10:44.000 : :24




Скачать Пустой человек через торрент https://i114.fastpic.ru/big/2021/0204/04/e4b72e88bbdc6cf076a253cdc4c6e304.jpg Скачать, смотреть онлайн Пустой человек бесплантно в хорошем качестве Описание: В 1995 году, путешествуя по горам Бутана, один из четырёх американских туристов провалился в странную пещеру и как будто впал в ... 10 10 3
Торрент: Зарегистрирован [2021-02-04 05:53] · скачан: 127 раз
Статус: √ проверено
Размер: 15.18 GB
Как cкачать? Как скачать Пустой человек через торрент | UTorrent

% Раздел Тема Автор DL S | L
Фильмы 2019-2020 [DVDrip, WEB-DLRip, HDrip] (DUB, MVO) [ 1.46 GB ] Пустой человек / The Empty Man | iTunes | DLRip bober100 Скачать
1 | 0
Фильмы 2019-2020 [DVDrip, WEB-DLRip, HDrip] (DUB, MVO) [ 2.18 GB ] Пустой человек / The Empty Man | iTunes | DLRip bober100 Скачать
1 | 0
Фильмы (WEB-DL 720p, 1080p) [ 10.99 GB ] Пустой человек / The Empty Man | iTunes | 1080p bober100 Скачать
1 | 0

28-11-2019 20:33  


Отключить вcю реклaмy на сайте, в т.ч. и в плеере онлайн просмотра!

    Дорогой пользователь! Огромная просьба, поблагодарите релизера, оцените раздачу и оставьте свои комментарий, если Вы скачали Пустой человек через торрент бесплатно!!
    Комментировать посты могут только пользователи прошедшие не сложную регистрацию
    Показать сообщения:    


    Пустой человек через торрент
    Скачать бесплатно Пустой человек
    Пустой человек скачать торрент
    Пустой человек смотреть онлайн
    Cкачать фильм Пустой человек бесплатно
    Пустой человек скачать торрент в хорошем качестве
    Пустой человек смотреть онлайн бесплатно в хорошем качестве
    Вы не можете начинать темы
    Вы не можете отвечать на сообщения
    Вы не можете редактировать свои сообщения
    Вы не можете удалять свои сообщения
    Вы не можете голосовать в опросах
    Вы не можете прикреплять файлы к сообщениям
    Вы можете скачивать файлы
    Пустой человек / The Empty Man [2020, Детектив, ужасы, UHD WEB-DL 2160p] MVO [iTunes] смотреть онлайн, скачать торрент picoco.icu