1 сезон

1 сезон

iTunes

1

КиноПоиск HD

Кинопоиск HD

iTunes

13

1 сезон

RePack

30

Новинка

ВАЖНО

ИГРА 18+

pack

RePack

MK11
pack

Легкие деньги

RePack

jed

RePack

fifa19

RePack

RDR2

RePack

NEED FOR SPEED™ PAYBACK

4 сезон

9 сезон

Бесстыжие 9 сезон

Все сериалы

все сериалы на PB.wtf

RePack

FAR CRY 5
  
Magnet ссылка

Доктор Хэрроу / Harrow / Сезон: 3 / Серии: 1-10 из 10 (Катрин Миллар, Тони Кравиц, Дэниэл Неттхейм) [2021, Триллер, драма, криминал, детектив, WEB-DL 1080p] MVO [AlexFilm] piratbit.org

Доктор Хэрроу через торрент piratbit.org

Раздают: 4 [ 98 KB/s ]
Размер: 22.62 GB | Добавлен: 9 д. назад | Торрент скачан:20 раз
Скачать  

09-02-2021 05:10 Доктор Хэрроу Скачать торрент  

Доктор Хэрроу | Harrow
Год выпуска: 2021
Страна: США, Австралия
Студия: ABC
Жанр: Триллер, драма, криминал, детектив
Продолжительность: ~ 00:52:00 серия
Перевод: Профессиональный (многоголосый, закадровый) | AlexFilm
Субтитры: Английские (SDH)

Режиссер: Катрин Миллар, Тони Кравиц, Дэниэл Неттхейм

rating

В ролях: Йоан Гриффит, Мирра Фолкс, Реми Хий, Робин Малкольм, Элла Ньютон, Анна Лизе Филлипс, Патрис Кокс, Мартиния О`Салливан, Пари Парандуш, Джонатан Шарп, Патрик Атчисон, Даррен Гилшенан, Мелани Хэйвард, Джанелл Бэйли, Хантер Пейдж-Лошар, Майкл Бэлк, Мелисса Бонн, Ари Бойлэнд, Николас Браун, Аарон Дэвисон, Киара Фриман и др.

Описание: Дэниэл Хэрроу — блестящий патологоанатом. С ним сложно общаться, но его исключительные профессиональные качества позволяют многим смириться со столь эксцентричным поведением. Однако у Дэниэла есть страшный секрет, который грозит вот-вот раскрыться и поставить под угрозу его семью и карьеру.

Качество: WEB-DL 1080p
Формат: MKV

Видео: MPEG-4 AVC, 1920x1080 (16:9), 25 fps, ~5400 Kbps
Аудио №1: AC3, 48,0 kHz, 6 ch, 384 kbps | AlexFilm
Аудио №2: AC3, 48,0 kHz, 6 ch, 384 kbps | Original
скриншот  скриншот  скриншот  скриншот  

Complete name : C:Harrow_(s03)_AlexFilm_1080pHarrow.2021.S03E01.Marta.Semper.Certa.Est.1080p.WEB-DL.DD5.1.x264-KOGi_EniaHD.mkv
Format : Matroska
Format version : Version 4
File size : 2.26 GiB
Duration : 52 min 1 s
Overall bit rate : 6 229 kb/s
Encoded date : UTC 2021-02-09 00:24:39
Writing application : mkvmerge v53.0.0 ('Fool's Gold') 64-bit
Writing library : libebml v1.4.1 + libmatroska v1.6.2

Video
ID : 1
Format : AVC
Format/Info : Advanced Video Codec
Format profile : High@L4
Format settings : CABAC / 4 Ref Frames
Format settings, CABAC : Yes
Format settings, Reference : 4 frames
Codec ID : V_MPEG4/ISO/AVC
Duration : 52 min 0 s
Bit rate : 5 459 kb/s
Width : 1 920 pixels
Height : 1 080 pixels
Display aspect ratio : 16:9
Frame rate mode : Constant
Frame rate : 25.000 FPS
Color space : YUV
Chroma subsampling : 4:2:0
Bit depth : 8 bits
Scan type : Progressive
Bits/(Pixel*Frame) : 0.105
Stream size : 1.98 GiB (88%)
Title : Release by EniaHD
Language : English
Default : Yes
Forced : No

Audio #1
ID : 2
Format : AC-3
Format/Info : Audio Coding 3
Commercial name : Dolby Digital
Codec ID : A_AC3
Duration : 52 min 1 s
Bit rate mode : Constant
Bit rate : 384 kb/s
Channel(s) : 6 channels
Channel layout : L R C LFE Ls Rs
Sampling rate : 48.0 kHz
Frame rate : 31.250 FPS (1536 SPF)
Compression mode : Lossy
Stream size : 143 MiB (6%)
Title : AlexFilm
Language : Russian
Service kind : Complete Main
Default : Yes
Forced : No

Audio #2
ID : 3
Format : AC-3
Format/Info : Audio Coding 3
Commercial name : Dolby Digital
Codec ID : A_AC3
Duration : 52 min 1 s
Bit rate mode : Constant
Bit rate : 384 kb/s
Channel(s) : 6 channels
Channel layout : L R C LFE Ls Rs
Sampling rate : 48.0 kHz
Frame rate : 31.250 FPS (1536 SPF)
Compression mode : Lossy
Stream size : 143 MiB (6%)
Language : English
Service kind : Complete Main
Default : No
Forced : No

Text
ID : 4
Format : UTF-8
Codec ID : S_TEXT/UTF8
Codec ID/Info : UTF-8 Plain Text
Duration : 51 min 35 s
Bit rate : 72 b/s
Count of elements : 922
Stream size : 27.2 KiB (0%)
Title : SDH
Language : English
Default : No
Forced : No

Внимание! Раздача ведётся путём добавления новых серий; при каждом добавлении создаётся новый торрент.
Чтобы начать докачку новой серии, пользователям необходимо сделать следующее:
1. Остановить скачивание;
2. Удалить старый торрент у себя из клиента (старые серии удалять не надо);
3. Скачать новый торрент и запустить его у себя в клиенте вместо старого, при этом указать клиенту путь в старую папку куда и должно происходить скачивание новых серий. Ваш клиент при этом должен произвести хеширование (проверку) старой папки и будет докачивать только те серии, которых у вас ещё нет. Старые серии при этом не удаляются, а продолжают раздаваться! Eсли вы уже удалили старые серии, то предотвратить повторную закачку старых серий можно, отжав галочку в соответствующих местах при запуске нового торрента.

piratbit.org



Скачать Доктор Хэрроу через торрент https://d.radikal.ru/d08/2102/e2/bb53c5a2728c.png Скачать фильм Доктор Хэрроу через торрент бесплантно в хорошем качестве Описание: Дэниэл Хэрроу — блестящий патологоанатом. С ним сложно общаться, но его исключительные профессиональные качества позволяют многим ... 10 10 8
Info! Золотая раздача, скачанное не засчитывается.
Торрент: Зарегистрирован [2021-04-13 22:39] · скачан: 20 раз
Статус: √ проверено
Размер: 22.62 GB
Как cкачать? Как скачать Доктор Хэрроу через торрент | UTorrent

% Раздел Тема Автор DL S | L
Зарубежные сериалы [ 3.23 GB ] Доктор Хэрроу / Harrow / Сезон: 3 / Серии: 1-5 из 10 [2021 WEB-DLRip] MVO [AlexFilm] bober100 Скачать
1 | 0
Зарубежные сериалы [ 11.13 GB ] Доктор Хэрроу / Harrow / Сезон: 3 / Серии: 1-10 из 10 [2021 WEB-DL 720p] MVO [AlexFilm] bober100 Скачать
1 | 0


Последний раз редактировалось: bober100 (2021-03-17 05:16), всего редактировалось 3 раз(а)

28-11-2019 20:33  

Отключить всю рекламу на сайте

24-02-2021 09:49 Доктор Хэрроу Скачать торрент  

Хэрроуый доктор... piratbit.org



17-03-2021 15:25 Доктор Хэрроу Скачать торрент  

bolvi68 писал(а):

Хэрроуый доктор...

piratbit.org



14-04-2021 01:08 Доктор Хэрроу Скачать торрент  

Хороший сериал...,норм так закончился...piratbit.org



    Дорогой пользователь! Огромная просьба, поблагодарите релизера, оцените раздачу и оставьте свои комментарий, если Вы скачали Доктор Хэрроу через торрент бесплатно! Внесите свою лепту в развитие PiratBit!
    Комментировать посты могут только пользователи прошедшие не сложную регистрацию
    Показать сообщения:    

    Доктор Хэрроу через торрент
    Скачать бесплатно Доктор Хэрроу
    Доктор Хэрроу скачать торрент
    Доктор Хэрроу смотреть онлайн
    Cкачать фильм Доктор Хэрроу бесплатно
    Доктор Хэрроу скачать торрент в хорошем качестве
    Доктор Хэрроу смотреть онлайн бесплатно в хорошем качестве


    Вы не можете начинать темы
    Вы не можете отвечать на сообщения
    Вы не можете редактировать свои сообщения
    Вы не можете удалять свои сообщения
    Вы не можете голосовать в опросах
    Вы не можете прикреплять файлы к сообщениям
    Вы можете скачивать файлы