2 сезон

iTunes

WEBRip

1

2 сезон

iTunes

1 сезон

1 сезон

RePack

30

Ultimate

ВАЖНО

ИГРА 18+

pack

RePack

MK11
pack

Легкие деньги

RePack

jed

RePack

fifa19

RePack

RDR2

RePack

NEED FOR SPEED™ PAYBACK

4 сезон

9 сезон

Бесстыжие 9 сезон

Все сериалы

все сериалы на PB.wtf

RePack

FAR CRY 5

Anonymous, доброй ночи, мы не успеваем собрать деньги на оплату серверов за февраль, помогите нам пожалуйста в это трудное время. В качестве благодарности мы отключим Вам всю рекламу на сайте (укажите свой ник в строку Ваше имя)!

×
  
Magnet ссылка

Сказка старого мельника / Казка старого мельника (Александр Итыгилов мл.) [2020, детский, фэнтези, WEB-DL 1080p] [UKR] piratbit.org

Сказка старого мельника через торрент piratbit.org

Раздают: 1 [ 0 KB/s ]
Размер: 2.88 GB | Добавлен: 19 д. назад | Торрент скачан:20 раз
Скачать  

09-02-2021 17:50 Сказка старого мельника Скачать торрент  

Сказка старого мельника / Казка старого мельника
Год выпуска: 2020
Страна: Украина
Жанр: детский, фэнтези
Продолжительность: 01:33:00
Язык: Украинский
Субтитры: отсутствуют

Режиссер: Александр Итыгилов мл.

rating

В ролях: Анна Кошмал, Валентин Томусяк, Ирма Витовская, Остап Ступка, Ада Роговцева, Владимир Горянский, Алексей Вертинский, Евгений Ныщук, Наталья Сумская, Анатолий Хостикоев

Описание: Вечер, дети собираются вокруг костра, старый мельник начинает рассказывать им сказку. В его сказке Миколка отправляется к господину Адаму, чтобы научить грамоте его дочь Христинку. И на пути к поместью Коля узнает, что поселок захватили нечистые силы, вурдалаки и поветрули, а сам пан Адам находится в плену. Миколка и Христинка решают освободить узников и земли от нечисти, но для этого им придется пройти через много испытаний, одно из которых может оказаться им не под силу…

Качество: WEB-DL 1080p
Формат: MKV

Видео: AVC, 1920x1080 (16:9), 24.000 fps, 4 303 kb/s
Аудио: AAC, 44.1 kHz, 6 ch, 128 kb/s
скриншот  скриншот  скриншот  скриншот  скриншот  

General
Unique ID : 60967379714424572569827930753441847664 (0x2DDDE3E59B8AC05C93D139D32C49D970)
Complete name : Казка старого мельника (2020) WEB-DL 1080p [Ukr] [Hurtom].mkv
Format : Matroska
Format version : Version 4
File size : 2.88 GiB
Duration : 1 h 33 min
Overall bit rate mode : Variable
Overall bit rate : 4 433 kb/s
Movie name : Казка старого мельника (2020)
Encoded date : UTC 2021-02-05 22:20:08
Writing application : mkvmerge v52.0.0 ('Secret For The Mad') 64-bit
Writing library : libebml v1.4.1 + libmatroska v1.6.2
Cover : Yes
Attachments : cover.jpg

Video
ID : 1
Format : AVC
Format/Info : Advanced Video Codec
Format profile : Main@L4
Format settings : CABAC / 1 Ref Frames
Format settings, CABAC : Yes
Format settings, Reference frames : 1 frame
Codec ID : V_MPEG4/ISO/AVC
Duration : 1 h 33 min
Bit rate mode : Variable
Bit rate : 4 303 kb/s
Maximum bit rate : 13.5 Mb/s
Width : 1 920 pixels
Height : 1 080 pixels
Display aspect ratio : 16:9
Frame rate mode : Constant
Frame rate : 24.000 FPS
Color space : YUV
Chroma subsampling : 4:2:0
Bit depth : 8 bits
Scan type : Progressive
Bits/(Pixel*Frame) : 0.086
Stream size : 2.80 GiB (97%)
Default : Yes
Forced : No

Audio
ID : 2
Format : AAC LC
Format/Info : Advanced Audio Codec Low Complexity
Codec ID : A_AAC-2
Duration : 1 h 33 min
Bit rate : 128 kb/s
Channel(s) : 6 channels
Channel layout : C L R Ls Rs LFE
Sampling rate : 44.1 kHz
Frame rate : 43.066 FPS (1024 SPF)
Compression mode : Lossy
Stream size : 85.2 MiB (3%)
Language : Ukrainian
Default : Yes
Forced : No

piratbit.org



Скачать Сказка старого мельника через торрент https://i1.imageban.ru/out/2021/02/09/0171b4d1dee2705db696a6000d0c0f78.jpg Скачать фильм Сказка старого мельника через торрент бесплантно в хорошем качестве Описание: Вечер, дети собираются вокруг костра, старый мельник начинает рассказывать им сказку. В его сказке Миколка отправляется к ... 8.2 10 5
Торрент: Зарегистрирован [2021-02-09 17:50] · скачан: 20 раз
Статус: √ проверено
Размер: 2.88 GB
Как cкачать? Как скачать Сказка старого мельника через торрент | UTorrent

% Раздел Тема Автор DL S | L
Фильмы с украинским озвучиванием [ 1.46 GB ] Сказка старого мельника / Казка старого мельника [2020 Детский WEB-DLRip] - [Украинский] Twi7ter Скачать
7 | 0

28-11-2019 20:33  

Отключить всю рекламу на сайте

    Дорогой пользователь! Огромная просьба, поблагодарите релизера, оцените раздачу и оставьте свои комментарий, если Вы скачали Сказка старого мельника через торрент бесплатно! Внесите свою лепту в развитие PiratBit!
    Комментировать посты могут только пользователи прошедшие не сложную регистрацию
    Показать сообщения:    

    Сказка старого мельника через торрент
    Скачать бесплатно Сказка старого мельника
    Сказка старого мельника скачать торрент
    Сказка старого мельника смотреть онлайн
    Cкачать фильм Сказка старого мельника бесплатно
    Сказка старого мельника скачать торрент в хорошем качестве
    Сказка старого мельника смотреть онлайн бесплатно в хорошем качестве


    Вы не можете начинать темы
    Вы не можете отвечать на сообщения
    Вы не можете редактировать свои сообщения
    Вы не можете удалять свои сообщения
    Вы не можете голосовать в опросах
    Вы не можете прикреплять файлы к сообщениям
    Вы можете скачивать файлы