2 сезон

iTunes

WEBRip

1

2 сезон

iTunes

1 сезон

1 сезон

RePack

30

Ultimate

ВАЖНО

ИГРА 18+

pack

RePack

MK11
pack

Легкие деньги

RePack

jed

RePack

fifa19

RePack

RDR2

RePack

NEED FOR SPEED™ PAYBACK

4 сезон

9 сезон

Бесстыжие 9 сезон

Все сериалы

все сериалы на PB.wtf

RePack

FAR CRY 5

Anonymous, доброй ночи, мы не успеваем собрать деньги на оплату серверов за февраль, помогите нам пожалуйста в это трудное время. В качестве благодарности мы отключим Вам всю рекламу на сайте (укажите свой ник в строку Ваше имя)!

×
  
Magnet ссылка

Нагиев на каникулах / Сезон: 1 / Серии: 1-2 из 10 (Сарик Андреасян) [2021, Комедия, WEB-DLRip] piratbit.org

Нагиев на каникулах через торрент piratbit.org

Раздают: 1 [ 0 KB/s ] Качают: 2 [ 0 KB/s ]
Размер: 480 MB | Добавлен: 2 д. 2 ч. назад | Торрент скачан:12 раз
Скачать  

15-02-2021 23:14 Нагиев на каникулах Скачать торрент  

Нагиев на каникулах
Год выпуска: 2021
Страна: Россия
Студия: Okko
Жанр: Комедия
Продолжительность: ~ 00:25:00

Режиссер: Сарик Андреасян



В ролях:
Дмитрий Нагиев, Роман Каграманов, Станислав Круглицкий, Елизавета Моряк, Джамиля Дадаева

Описание:
Продолжение двух сезонов сериала «Нагиев на карантине». Карантин прошёл и случилось то, чего так долго все ждали — снова начали летать самолеты! Люди, которые устали от самоизоляции рванули отдохнуть. И Дмитрий Нагиев не стал исключением. Ему поступило прекрасное предложение совместить приятное с полезным: поработать и параллельно отдохнуть в эмиратах. Отказаться очень сложно — сумма хорошая, погода прекрасная, а всего-то нужно провести свадьбу шейха. Но не тут-то было! Поездка превращается в испытание, которое Дмитрий должен будет пройти, чтобы вернуться домой уже совсем другим Нагиевым.

Качество: WEB-DLRip
Формат: AVI

Видео: 1670 Кбит/сек, 720*304 (2,35:1), в 25,000 кадров/сек, MPEG-4 Visual (XviD)
Аудио: 192 Кбит/сек, 48,0 КГц, 16 бит, 2 канала, AC-3

Общее
Полное имя : G:\Nagiev.na.kanikulakh.S01.WEB-DLRip.25Kuzmich\Nagiev.na.kanikulakh.s01.e01.WEB-DLRip.25Kuzmich.avi
Формат : AVI
Формат/Информация : Audio Video Interleave
Размер файла : 226 Мбайт
Продолжительность : 16 м. 51 с.
Общий поток : 1872 Кбит/сек
Программа кодирования : VirtualDubMod 1.5.10.3 | www.virtualdub-fr.org || (build 2550/release)
Библиотека кодирования : VirtualDubMod build 2550/release

Видео
Идентификатор : 0
Формат : MPEG-4 Visual
Профиль формата : Advanced Simple@L5
Настройки формата : BVOP1
Параметр BVOP формата : 1
Параметр QPel формата : Нет
Параметр GMC формата : Без точки перехода
Параметр матрицы формата : Default (MPEG)
Идентификатор кодека : XVID
Идентификатор кодека/Подсказка : XviD
Продолжительность : 16 м. 51 с.
Битрейт : 1670 Кбит/сек
Ширина : 720 пикселей
Высота : 304 пикселя
Соотношение сторон : 2,35:1
Частота кадров : 25,000 кадров/сек
Цветовое пространство : YUV
Субдискретизация насыщенности : 4:2:0
Битовая глубина : 8 бит
Тип развёртки : Прогрессивная
Метод сжатия : С потерями
Бит/(Пиксели*Кадры) : 0.305
Размер потока : 201 Мбайт (89%)
Библиотека кодирования : XviD 73

Аудио
Идентификатор : 1
Формат : AC-3
Формат/Информация : Audio Coding 3
Коммерческое название : Dolby Digital
Идентификатор кодека : 2000
Продолжительность : 16 м. 51 с.
Вид битрейта : Постоянный
Битрейт : 192 Кбит/сек
Каналы : 2 канала
ChannelLayout : L R
Частота : 48,0 КГц
Частота кадров : 31,250 кадров/сек (1536 SPF)
Битовая глубина : 16 бит
Метод сжатия : С потерями
Размер потока : 23,2 Мбайт (10%)
Выравнивание : Разделение по промежуткам
Продолжительность промежутка : 40 мс. (1,00 видеокадр)
Время предзагрузки промежутка : 500 мс.
ServiceKind/String : Complete Main


Скриншоты:
скриншот   скриншот   скриншот   скриншот   скриншот   скриншот   скриншот   
скриншот  
piratbit.org



Скачать Нагиев на каникулах через торрент https://pic1.kartinco.top/new/img/2021-02/16/i8hyomvhn4wcvqyqckmx30sqc.jpg Скачать фильм Нагиев на каникулах через торрент бесплантно в хорошем качестве Описание: Продолжение двух сезонов сериала «Нагиев на карантине». Карантин прошёл и случилось то, чего так долго все ждали — снова начали ... 10 10 2
Торрент: Зарегистрирован [2021-02-22 23:49] · скачан: 12 раз
Статус: √ проверено
Размер: 480 MB
Как cкачать? Как скачать Нагиев на каникулах через торрент | UTorrent

% Раздел Тема Автор DL S | L
Наши сериалы [ 1.31 GB ] Нагиев на каникулах / Сезон: 1 / Серии: 1-2 из 10 [2021 WEB-DL 1080p] bober100 Скачать
7 | 1
Наши сериалы [ 876 MB ] Нагиев на каникулах / Сезон: 1 / Серии: 1-2 из 10 [2021 WEB-DL 720p] GEKADOL Скачать
3 | 1

28-11-2019 20:33  

Отключить всю рекламу на сайте

    Дорогой пользователь! Огромная просьба, поблагодарите релизера, оцените раздачу и оставьте свои комментарий, если Вы скачали Нагиев на каникулах через торрент бесплатно! Внесите свою лепту в развитие PiratBit!
    Комментировать посты могут только пользователи прошедшие не сложную регистрацию
    Показать сообщения:    

    Нагиев на каникулах через торрент
    Скачать бесплатно Нагиев на каникулах
    Нагиев на каникулах скачать торрент
    Нагиев на каникулах смотреть онлайн
    Cкачать фильм Нагиев на каникулах бесплатно
    Нагиев на каникулах скачать торрент в хорошем качестве
    Нагиев на каникулах смотреть онлайн бесплатно в хорошем качестве


    Вы не можете начинать темы
    Вы не можете отвечать на сообщения
    Вы не можете редактировать свои сообщения
    Вы не можете удалять свои сообщения
    Вы не можете голосовать в опросах
    Вы не можете прикреплять файлы к сообщениям
    Вы можете скачивать файлы