1 сезон

3 сезон

iTunes

1

iTunes

DUB Netflix

iTunes

13

1 сезон

RePack

30

Deluxe

pack

Легкие деньги

ВАЖНО

ИГРА 18+

pack

RePack

MK11

RePack

jed

RePack

fifa19

RePack

RDR2

RePack

NEED FOR SPEED™ PAYBACK

4 сезон

9 сезон

Бесстыжие 9 сезон

Все сериалы

все сериалы на PB.wtf

RePack

FAR CRY 5

Anonymous, добрый день, мы не успеваем до 1 числа собрать деньги на оплату серверов, помогите нам пожалуйста в это трудное время. В качестве благодарности мы отключим Вам всю рекламу на сайте (укажите свой ник в строку Ваше имя)!

×
  
Magnet ссылка

Мастер / Сезон: 1 / Серии: 1-8 из 8 (Степан Коршунов) [2021, Драма, спорт, WEBRip, (Версия 18+)] piratbit.org

Мастер через торрент piratbit.org

Раздают: 2 [ 79 KB/s ] Качают: 1 [ 0 KB/s ]
Размер: 4.69 GB | Добавлен: 3 мес. 11 д. назад | Торрент скачан:118 раз
Скачать  

18-02-2021 09:59 Мастер Скачать торрент  

Мастер
Год выпуска: 2021
Страна: Россия
Выпущено: Art Pictures Vision при поддержке спортивной команды «КАМАЗ-мастер» по заказу телеканала НТВ
Жанр: Драма, спорт
Продолжительность: ~ 00:59:00
Субтитры: отсутствуют
Версия 18+.

Режиссер: Степан Коршунов



В ролях: Анатолий Белый, Игорь Петренко, Антон Васильев, Линда Лапиньш, Макар Запорожский, Никита Павленко, Сергей Шакуров, Ангелина Поплавская, Ингрид Олеринская, Олег Филипчик, Аристарх Венес, Полина Долиндо, Антон Риваль, Ксения Лаврова-Глинка

Описание: Бывший пилот гоночной команды «КАМАЗ-мастер» Денис Сазонов после 12-летнего перерыва и краха на всех жизненных фронтах хочет вернуться в родную команду. Но это оказывается непросто: когда-то, став самым молодым чемпионом мира в истории ралли-рейдов, он был уволен из «КАМАЗ-мастера» за нарушение командной этики. Денис хочет вернуть чувство самоуважения и причастность к «большому делу» и снова выиграть ралли-рейд. Но в команде его никто не ждёт. Заместитель директора команды Ерёмин не хочет давать ему шанс, ведь считает, что Денис нарушил командные правила. Сазонов устраивается в команду уборщиком, проходя весь путь «в руль» с самого начала. Но и здесь его ждёт неприятный сюрприз: он встречает свою бывшую жену Женю, которая планирует занять место штурмана и стать первой женщиной-пилотом в мужском коллективе.

Качество: WEBRip
Формат: AVI

Видео: XviD, ~ 1500 Кбит/с, 720x304
Аудио: 48.0 kHz, AC3 Dolby Digital, 2/0 (L,R) ch, ~ 192 kbps
скриншот  скриншот  скриншот  скриншот  

General
Complete name : Downloads\Master.s01.WEB-DLRip.25Kuzmich
Format : AVI
Format/Info : Audio Video Interleave
File size : 601 MiB
Duration : 59 min 2 s
Overall bit rate : 1 423 kb/s
Writing application : VirtualDubMod 1.5.10.3 | www.virtualdub-fr.org || (build 2550/release)
Writing library : VirtualDubMod build 2550/release
Video #0
ID : 0
Format : MPEG-4 Visual
Format profile : Advanced Simple@L5
Format settings : BVOP1
Format settings, BVOP : 1
Format settings, QPel : No
Format settings, GMC : No warppoints
Format settings, Matrix : Default (MPEG)
Codec ID : XVID
Codec ID/Hint : XviD
Duration : 59 min 2 s
Bit rate : 1 221 kb/s
Width : 720 pixels
Height : 304 pixels
Display aspect ratio : 2.35:1
Frame rate : 25.000 FPS
Color space : YUV
Chroma subsampling : 4:2:0
Bit depth : 8 bits
Scan type : Progressive
Compression mode : Lossy
Bits/(Pixel*Frame) : 0.223
Stream size : 516 MiB (86%)
Writing library : XviD 73
Audio #1
ID : 1
Format : AC-3
Format/Info : Audio Coding 3
Codec ID : 2000
Duration : 59 min 2 s
Bit rate mode : Constant
Bit rate : 192 kb/s
Channel(s) : 2 channels
Channel positions : Front: L R
Sampling rate : 48.0 kHz
Frame rate : 31.250 FPS (1536 SPF)
Bit depth : 16 bits
Compression mode : Lossy
Stream size : 81.1 MiB (13%)
Alignment : Split accross interleaves
Interleave, duration : 40 ms (1.00 video frame)
Interleave, preload duration : 500 ms
Service kind : Complete Main

Внимание! Раздача ведётся путём добавления новых серий; при каждом добавлении создаётся новый торрент.
Чтобы начать докачку новой серии, пользователям необходимо сделать следующее:
1. Остановить скачивание;
2. Удалить старый торрент у себя из клиента (старые серии удалять не надо);
3. Скачать новый торрент и запустить его у себя в клиенте вместо старого, при этом указать клиенту путь в старую папку куда и должно происходить скачивание новых серий. Ваш клиент при этом должен произвести хеширование (проверку) старой папки и будет докачивать только те серии, которых у вас ещё нет. Старые серии при этом не удаляются, а продолжают раздаваться! Eсли вы уже удалили старые серии, то предотвратить повторную закачку старых серий можно, отжав галочку в соответствующих местах при запуске нового торрента.

piratbit.org



Скачать Мастер через торрент https://img11.lostpic.net/2021/02/18/cb77d1a8f27405ece6b194de726db547.jpg Скачать фильм Мастер через торрент бесплантно в хорошем качестве Описание: Бывший пилот гоночной команды «КАМАЗ-мастер» Денис Сазонов после 12-летнего перерыва и краха на всех жизненных фронтах хочет ... 10 10 10
Торрент: Зарегистрирован [2021-03-11 11:50] · скачан: 118 раз
Статус: √ проверено
Размер: 4.69 GB
Как cкачать? Как скачать Мастер через торрент | UTorrent

% Раздел Тема Автор DL S | L
TNT serials [ 9.87 GB ] Мастер / Сезон: 1 / Серии: 1-8 из 8 [2021 WEBRip 720p ] bober100 Скачать
1 | 0
TNT serials [ 5.57 GB ] Мастер / Сезон: 1 / Серии: 1-8 из 8 [2021 WEBRip-AVC ] bober100 Скачать
1 | 0
TNT serials [ 14.52 GB ] Мастер / Сезон: 1 / Серии: 1-8 из 8 [2021 WEBRip 1080p ] bober100 Скачать
1 | 0

28-11-2019 20:33  

Отключить всю рекламу на сайте

    Дорогой пользователь! Огромная просьба, поблагодарите релизера, оцените раздачу и оставьте свои комментарий, если Вы скачали Мастер через торрент бесплатно! Внесите свою лепту в развитие PiratBit!
    Комментировать посты могут только пользователи прошедшие не сложную регистрацию
    Показать сообщения:    

    Мастер через торрент
    Скачать бесплатно Мастер
    Мастер скачать торрент
    Мастер смотреть онлайн
    Cкачать фильм Мастер бесплатно
    Мастер скачать торрент в хорошем качестве
    Мастер смотреть онлайн бесплатно в хорошем качестве


    Вы не можете начинать темы
    Вы не можете отвечать на сообщения
    Вы не можете редактировать свои сообщения
    Вы не можете удалять свои сообщения
    Вы не можете голосовать в опросах
    Вы не можете прикреплять файлы к сообщениям
    Вы можете скачивать файлы