1 сезон

3 сезон

iTunes

1

iTunes

DUB Netflix

iTunes

13

1 сезон

RePack

30

Deluxe

pack

Легкие деньги

ВАЖНО

ИГРА 18+

pack

RePack

MK11

RePack

jed

RePack

fifa19

RePack

RDR2

RePack

NEED FOR SPEED™ PAYBACK

4 сезон

9 сезон

Бесстыжие 9 сезон

Все сериалы

все сериалы на PB.wtf

RePack

FAR CRY 5

Anonymous, доброй ночи, мы не успеваем до 1 числа собрать деньги на оплату серверов, помогите нам пожалуйста в это трудное время. В качестве благодарности мы отключим Вам всю рекламу на сайте (укажите свой ник в строку Ваше имя)!

×
  
Magnet ссылка

Мастер / Сезон: 1 / Серии: 1-8 из 8 (Степан Коршунов) [2021, Драма, спорт, WEBRip 1080p, (Версия 18+)] piratbit.org

Мастер через торрент piratbit.org

Раздают: 1 [ 236 KB/s ]
Размер: 14.52 GB | Добавлен: 3 мес. 8 д. назад | Торрент скачан:77 раз
Скачать  

18-02-2021 10:03 Мастер Скачать торрент  

Мастер
Год выпуска: 2021
Страна: Россия
Выпущено: Art Pictures Vision при поддержке спортивной команды «КАМАЗ-мастер» по заказу телеканала НТВ
Жанр: Драма, спорт
Продолжительность: ~ 00:59:00
Субтитры: отсутствуют
Версия 18+.

Режиссер: Степан Коршунов



В ролях: Анатолий Белый, Игорь Петренко, Антон Васильев, Линда Лапиньш, Макар Запорожский, Никита Павленко, Сергей Шакуров, Ангелина Поплавская, Ингрид Олеринская, Олег Филипчик, Аристарх Венес, Полина Долиндо, Антон Риваль, Ксения Лаврова-Глинка

Описание: Бывший пилот гоночной команды «КАМАЗ-мастер» Денис Сазонов после 12-летнего перерыва и краха на всех жизненных фронтах хочет вернуться в родную команду. Но это оказывается непросто: когда-то, став самым молодым чемпионом мира в истории ралли-рейдов, он был уволен из «КАМАЗ-мастера» за нарушение командной этики. Денис хочет вернуть чувство самоуважения и причастность к «большому делу» и снова выиграть ралли-рейд. Но в команде его никто не ждёт. Заместитель директора команды Ерёмин не хочет давать ему шанс, ведь считает, что Денис нарушил командные правила. Сазонов устраивается в команду уборщиком, проходя весь путь «в руль» с самого начала. Но и здесь его ждёт неприятный сюрприз: он встречает свою бывшую жену Женю, которая планирует занять место штурмана и стать первой женщиной-пилотом в мужском коллективе.

Качество: WEBRip 1080p
Формат: MKV

Видео: H.264 / AVC, 1920x800 (2,40:1), 25,000 кадров/сек, ~ 4500 Кбит/сек, 0.117 bit/pixel
Аудио: 48.0 kHz, AC3 Dolby Digital, 2/0 (L,R) ch, ~ 192 kbps
скриншот  скриншот  скриншот  скриншот  

Общее
Уникальный идентификатор : 250287806223703479050428728633621794811 (0xBC4BAD9622748946807AE5B4ADF8CFFB)
Полное имя : E:\Master.2021.WEB-DL.(1080p).Getty\Master.e01.2021.WEB-DL.(1080p).Getty.mkv
Формат : Matroska
Версия формата : Version 4
Размер файла : 1,93 Гбайт
Продолжительность : 59 м. 2 с.
Режим общего битрейта : Переменный
Общий поток : 4 678 Кбит/сек
Название фильма : Master.e01.2021.WEB-DL.(1080p).Getty
Дата кодирования : UTC 2021-02-18 07:05:18
Программа кодирования : mkvmerge v7.8.0 ('River Man') 32bit built on Mar 27 2015 16:18:02
Библиотека кодирования : libebml v1.3.1 + libmatroska v1.4.2

Видео
Идентификатор : 1
Формат : AVC
Формат/Информация : Advanced Video Codec
Профиль формата : High@L4
Настройки формата : CABAC / 1 Ref Frames
Параметр CABAC формата : Да
Параметр RefFrames формата : 1 кадр
Параметр GOP формата : M=1, N=50
Идентификатор кодека : V_MPEG4/ISO/AVC
Продолжительность : 59 м. 2 с.
Вид битрейта : Переменный
Битрейт : 4 500 Кбит/сек
Ширина : 1 920 пикселей
Высота : 800 пикселей
Соотношение сторон : 2,40:1
Режим частоты кадров : Постоянный
Частота кадров : 25,000 кадров/сек
Цветовое пространство : YUV
Субдискретизация насыщенности : 4:2:0
Битовая глубина : 8 бит
Тип развёртки : Прогрессивная
Бит/(Пиксели*Кадры) : 0.117
Размер потока : 1,85 Гбайт (96%)
Default : Да
Forced : Нет

Аудио
Идентификатор : 2
Формат : AC-3
Формат/Информация : Audio Coding 3
Коммерческое название : Dolby Digital
Идентификатор кодека : A_AC3
Продолжительность : 59 м. 2 с.
Вид битрейта : Постоянный
Битрейт : 192 Кбит/сек
Каналы : 2 канала
Channel layout : L R
Частота : 48,0 КГц
Частота кадров : 31,250 кадров/сек (1536 SPF)
Метод сжатия : С потерями
Размер потока : 81,1 Мбайт (4%)
Service kind : Complete Main
Default : Да
Forced : Нет

Внимание! Раздача ведётся путём добавления новых серий; при каждом добавлении создаётся новый торрент.
Чтобы начать докачку новой серии, пользователям необходимо сделать следующее:
1. Остановить скачивание;
2. Удалить старый торрент у себя из клиента (старые серии удалять не надо);
3. Скачать новый торрент и запустить его у себя в клиенте вместо старого, при этом указать клиенту путь в старую папку куда и должно происходить скачивание новых серий. Ваш клиент при этом должен произвести хеширование (проверку) старой папки и будет докачивать только те серии, которых у вас ещё нет. Старые серии при этом не удаляются, а продолжают раздаваться! Eсли вы уже удалили старые серии, то предотвратить повторную закачку старых серий можно, отжав галочку в соответствующих местах при запуске нового торрента.

piratbit.org



Скачать Мастер через торрент https://i114.fastpic.ru/big/2021/0222/2a/6db9b643bc4e7ca5a92eac7288ce612a.jpg Скачать фильм Мастер через торрент бесплантно в хорошем качестве Описание: Бывший пилот гоночной команды «КАМАЗ-мастер» Денис Сазонов после 12-летнего перерыва и краха на всех жизненных фронтах хочет ... 8.6 10 14
Торрент: Зарегистрирован [2021-03-11 08:02] · скачан: 77 раз
Статус: √ проверено
Размер: 14.52 GB
Как cкачать? Как скачать Мастер через торрент | UTorrent

% Раздел Тема Автор DL S | L
TNT serials [ 9.87 GB ] Мастер / Сезон: 1 / Серии: 1-8 из 8 [2021 WEBRip 720p ] bober100 Скачать
2 | 0
TNT serials [ 5.57 GB ] Мастер / Сезон: 1 / Серии: 1-8 из 8 [2021 WEBRip-AVC ] bober100 Скачать
1 | 0
TNT serials [ 4.69 GB ] Мастер / Сезон: 1 / Серии: 1-8 из 8 [2021 WEBRip ] bober100 Скачать
3 | 0

28-11-2019 20:33  

Отключить всю рекламу на сайте

    Дорогой пользователь! Огромная просьба, поблагодарите релизера, оцените раздачу и оставьте свои комментарий, если Вы скачали Мастер через торрент бесплатно! Внесите свою лепту в развитие PiratBit!
    Комментировать посты могут только пользователи прошедшие не сложную регистрацию
    Показать сообщения:    

    Мастер через торрент
    Скачать бесплатно Мастер
    Мастер скачать торрент
    Мастер смотреть онлайн
    Cкачать фильм Мастер бесплатно
    Мастер скачать торрент в хорошем качестве
    Мастер смотреть онлайн бесплатно в хорошем качестве


    Вы не можете начинать темы
    Вы не можете отвечать на сообщения
    Вы не можете редактировать свои сообщения
    Вы не можете удалять свои сообщения
    Вы не можете голосовать в опросах
    Вы не можете прикреплять файлы к сообщениям
    Вы можете скачивать файлы