1 сезон

3 сезон

iTunes

1

iTunes

DUB Netflix

iTunes

13

1 сезон

RePack

30

Deluxe

pack

Легкие деньги

ВАЖНО

ИГРА 18+

pack

RePack

MK11

RePack

jed

RePack

fifa19

RePack

RDR2

RePack

NEED FOR SPEED™ PAYBACK

4 сезон

9 сезон

Бесстыжие 9 сезон

Все сериалы

все сериалы на PB.wtf

RePack

FAR CRY 5

Anonymous, доброй ночи, мы не успеваем до 1 числа собрать деньги на оплату серверов, помогите нам пожалуйста в это трудное время. В качестве благодарности мы отключим Вам всю рекламу на сайте (укажите свой ник в строку Ваше имя)!

×
  
Magnet ссылка

Мастер / Сезон: 1 / Серии: 1-8 из 8 (Степан Коршунов) [2021, Драма, спорт, WEBRip-AVC, (Версия 18+)] piratbit.org

Мастер через торрент piratbit.org

Размер: 5.57 GB | Добавлен: 3 мес. 8 д. назад | Торрент скачан:71 раз
Скачать  

18-02-2021 15:07 Мастер Скачать торрент  

Мастер
Год выпуска: 2021
Страна: Россия
Выпущено: Art Pictures Vision при поддержке спортивной команды «КАМАЗ-мастер» по заказу телеканала НТВ
Жанр: Драма, спорт
Продолжительность: ~ 00:59:00
Субтитры: отсутствуют
Версия 18+. Присутствует ненормативная лексика

Режиссер: Степан Коршунов



В ролях: Анатолий Белый, Игорь Петренко, Антон Васильев, Линда Лапиньш, Макар Запорожский, Никита Павленко, Сергей Шакуров, Ангелина Поплавская, Ингрид Олеринская, Олег Филипчик, Аристарх Венес, Полина Долиндо, Антон Риваль, Ксения Лаврова-Глинка

Описание: Бывший пилот гоночной команды «КАМАЗ-мастер» Денис Сазонов после 12-летнего перерыва и краха на всех жизненных фронтах хочет вернуться в родную команду. Но это оказывается непросто: когда-то, став самым молодым чемпионом мира в истории ралли-рейдов, он был уволен из «КАМАЗ-мастера» за нарушение командной этики. Денис хочет вернуть чувство самоуважения и причастность к «большому делу» и снова выиграть ралли-рейд. Но в команде его никто не ждёт. Заместитель директора команды Ерёмин не хочет давать ему шанс, ведь считает, что Денис нарушил командные правила. Сазонов устраивается в команду уборщиком, проходя весь путь «в руль» с самого начала. Но и здесь его ждёт неприятный сюрприз: он встречает свою бывшую жену Женю, которая планирует занять место штурмана и стать первой женщиной-пилотом в мужском коллективе.

Качество: WEBRip-AVC
Формат: MKV

Видео: MPEG-4 AVC, ~ 1600 Кбит/с, 1024x576, 25 кадр/с
Аудио: 48.0 kHz, AC3 Dolby Digital, 2/0 (L,R) ch, ~ 192 kbps
скриншот  скриншот  скриншот  скриншот  

General
Unique ID : 175119428344340677570484895226393335021 (0x83BEC66C3F7FC239984F5896B03D14ED)
Complete name : F:\Мастер.(2021).WEBRip.(AVC).Files-x\01.Master.(2021).WEBRip.(AVC).by.Серый1779.Files-x.mkv
Format : Matroska
Format version : Version 2
File size : 758 MiB
Duration : 59 min 2 s
Overall bit rate : 1 794 kb/s
Encoded date : UTC 2021-02-18 13:16:21
Writing application : mkvmerge v7.8.0 ('River Man') 32bit built on Apr 3 2015 12:11:22
Writing library : libebml v1.3.1 + libmatroska v1.4.2

Video
ID : 1
Format : AVC
Format/Info : Advanced Video Codec
Format profile : High@L4.1
Format settings : CABAC / 9 Ref Frames
Format settings, CABAC : Yes
Format settings, RefFrames : 9 frames
Codec ID : V_MPEG4/ISO/AVC
Duration : 59 min 2 s
Bit rate : 1 600 kb/s
Width : 1 024 pixels
Height : 432 pixels
Display aspect ratio : 2.40:1
Frame rate mode : Constant
Frame rate : 25.000 FPS
Color space : YUV
Chroma subsampling : 4:2:0
Bit depth : 8 bits
Scan type : Progressive
Bits/(Pixel*Frame) : 0.145
Stream size : 661 MiB (87%)
Writing library : x264 core 146 r2538 121396c
Encoding settings : cabac=1 / ref=9 / deblock=1:-2:-1 / analyse=0x3:0x133 / me=umh / subme=9 / psy=1 / psy_rd=1.00:0.15 / mixed_ref=1 / me_range=32 / chroma_me=1 / trellis=2 / 8x8dct=1 / cqm=0 / deadzone=21,11 / fast_pskip=0 / chroma_qp_offset=-3 / threads=18 / lookahead_threads=3 / sliced_threads=0 / nr=0 / decimate=1 / interlaced=0 / bluray_compat=0 / constrained_intra=0 / bframes=9 / b_pyramid=2 / b_adapt=2 / b_bias=0 / direct=1 / weightb=1 / open_gop=0 / weightp=2 / keyint=250 / keyint_min=25 / scenecut=40 / intra_refresh=0 / rc=2pass / mbtree=0 / bitrate=1600 / ratetol=1.0 / qcomp=0.60 / qpmin=0 / qpmax=69 / qpstep=4 / cplxblur=20.0 / qblur=0.5 / ip_ratio=1.40 / pb_ratio=1.30 / aq=2:1.00
Default : Yes
Forced : No
Color range : Limited
Color primaries : BT.709
Transfer characteristics : BT.709
Matrix coefficients : BT.709

Audio
ID : 2
Format : AC-3
Format/Info : Audio Coding 3
Format settings, Endianness : Big
Codec ID : A_AC3
Duration : 59 min 2 s
Bit rate mode : Constant
Bit rate : 192 kb/s
Channel(s) : 2 channels
Channel positions : Front: L R
Sampling rate : 48.0 kHz
Frame rate : 31.250 FPS (1536 SPF)
Bit depth : 16 bits
Compression mode : Lossy
Stream size : 81.1 MiB (11%)
Service kind : Complete Main
Default : Yes
Forced : No

Внимание! Раздача ведётся путём добавления новых серий; при каждом добавлении создаётся новый торрент.
Чтобы начать докачку новой серии, пользователям необходимо сделать следующее:
1. Остановить скачивание;
2. Удалить старый торрент у себя из клиента (старые серии удалять не надо);
3. Скачать новый торрент и запустить его у себя в клиенте вместо старого, при этом указать клиенту путь в старую папку куда и должно происходить скачивание новых серий. Ваш клиент при этом должен произвести хеширование (проверку) старой папки и будет докачивать только те серии, которых у вас ещё нет. Старые серии при этом не удаляются, а продолжают раздаваться! Eсли вы уже удалили старые серии, то предотвратить повторную закачку старых серий можно, отжав галочку в соответствующих местах при запуске нового торрента.

piratbit.org



Скачать Мастер через торрент https://img11.lostpic.net/2021/02/18/cb77d1a8f27405ece6b194de726db547.jpg Скачать фильм Мастер через торрент бесплантно в хорошем качестве Описание: Бывший пилот гоночной команды «КАМАЗ-мастер» Денис Сазонов после 12-летнего перерыва и краха на всех жизненных фронтах хочет ... 10 10 8
Торрент: Зарегистрирован [2021-03-11 17:23] · скачан: 71 раз
Статус: √ проверено
Размер: 5.57 GB
Как cкачать? Как скачать Мастер через торрент | UTorrent

% Раздел Тема Автор DL S | L
TNT serials [ 9.87 GB ] Мастер / Сезон: 1 / Серии: 1-8 из 8 [2021 WEBRip 720p ] bober100 Скачать
2 | 0
TNT serials [ 14.52 GB ] Мастер / Сезон: 1 / Серии: 1-8 из 8 [2021 WEBRip 1080p ] bober100 Скачать
2 | 0
TNT serials [ 4.69 GB ] Мастер / Сезон: 1 / Серии: 1-8 из 8 [2021 WEBRip ] bober100 Скачать
3 | 0

28-11-2019 20:33  

Отключить всю рекламу на сайте


    Дорогой пользователь! Огромная просьба, поблагодарите релизера, оцените раздачу и оставьте свои комментарий, если Вы скачали Мастер через торрент бесплатно! Внесите свою лепту в развитие PiratBit!
    Комментировать посты могут только пользователи прошедшие не сложную регистрацию
    Показать сообщения:    

    Мастер через торрент
    Скачать бесплатно Мастер
    Мастер скачать торрент
    Мастер смотреть онлайн
    Cкачать фильм Мастер бесплатно
    Мастер скачать торрент в хорошем качестве
    Мастер смотреть онлайн бесплатно в хорошем качестве


    Вы не можете начинать темы
    Вы не можете отвечать на сообщения
    Вы не можете редактировать свои сообщения
    Вы не можете удалять свои сообщения
    Вы не можете голосовать в опросах
    Вы не можете прикреплять файлы к сообщениям
    Вы можете скачивать файлы