2 сезон

iTunes

WEBRip

1

2 сезон

iTunes

1 сезон

1 сезон

RePack

30

Новинка

ВАЖНО

ИГРА 18+

pack

RePack

MK11
pack

Легкие деньги

RePack

jed

RePack

fifa19

RePack

RDR2

RePack

NEED FOR SPEED™ PAYBACK

4 сезон

9 сезон

Бесстыжие 9 сезон

Все сериалы

все сериалы на PB.wtf

RePack

FAR CRY 5

Anonymous, доброй ночи, мы не успеваем собрать деньги на оплату серверов за февраль, помогите нам пожалуйста в это трудное время. В качестве благодарности мы отключим Вам всю рекламу на сайте (укажите свой ник в строку Ваше имя)!

×
  
Magnet ссылка

Корпорация Ad Libitum (Полина Ольденбург) [2020 г., приключения, триллер, WEB-DLRip, Не требуется Русский"iTunes"] piratbit.org

Скачать  

18-02-2021 18:19 Корпорация Ad Libitum Скачать торрент  

Корпорация Ad Libitum
Год выпуска: 2020
Страна: Россия / Gramani Film
Жанр: приключения, триллер
Продолжительность: 01:35:49
Перевод: Не требуется Русский (iTunes)

Режиссер: Полина Ольденбург
«Мы продаём то, что нельзя купить»
rating

В ролях: Шамиль Хаматов, Игорь Петренко, Дарья Белоусова, Евгения Крегжде, Антон Фёдоров, Кристина Бабушкина, Карэн Бадалов, Иван Стебунов, Александр Ильин мл., Егор Рыбаков

Описание: А вы мечтаете о настоящей любви? Чтобы голова кружилась и страстно хотелось жить, чтобы все чувства были остры как в 16 лет, и любимый человек будоражил до глубины души. Такую любовь тяжело найти, когда ты многое испытал и много достиг. Корпорация Ad Libitum исполняет любые желания. Первая встреча для настоящих скептиков бесплатна. За вторую и последующие придется очень дорого заплатить.

Качество: WEB-DLRip
Формат: AVI
Видео кодек: DivX
Аудио кодек: MP3
Видео: 640x272 (2.35:1), 24.000 fps, XviD build 50 ~908 kbps avg, 0.22 bit/pixel
Аудио: 48 kHz, MPEG Layer 3, 2 ch, ~128.00 kbps avg








Общее
Полное имя : G:\ФИЛЬМЫ\Корпорация Ad Libitum.2020.WEB-DLRip.avi
Формат : AVI
Формат/Информация : Audio Video Interleave
Размер файла : 717 Мбайт
Продолжительность : 1 ч. 35 м.
Общий поток : 1 046 Кбит/сек
Программа кодирования : VirtualDubMod 1.5.10.3 | www.virtualdub-fr.org || (build 2550/release)
Библиотека кодирования : VirtualDubMod build 2550/release

Видео
Идентификатор : 0
Формат : MPEG-4 Visual
Профиль формата : Advanced Simple@L5
Настройки формата : BVOP2
Параметр BVOP формата : 2
Параметр QPel формата : Нет
Параметр GMC формата : Без точки перехода
Параметр матрицы формата : Default (MPEG)
Идентификатор кодека : XVID
Идентификатор кодека/Подсказка : XviD
Продолжительность : 1 ч. 35 м.
Битрейт : 909 Кбит/сек
Ширина : 640 пикселей
Высота : 272 пикселя
Соотношение сторон : 2,35:1
Частота кадров : 24,000 кадра/сек
Цветовое пространство : YUV
Субдискретизация насыщенности : 4:2:0
Битовая глубина : 8 бит
Тип развёртки : Прогрессивная
Метод сжатия : С потерями
Бит/(Пиксели*Кадры) : 0.218
Размер потока : 623 Мбайт (87%)
Библиотека кодирования : XviD 1.2.1 (UTC 2008-12-04)

Аудио
Идентификатор : 1
Формат : MPEG Audio
Версия формата : Version 1
Профиль формата : Layer 3
Настройки формата : Joint stereo / MS Stereo
Идентификатор кодека : 55
Идентификатор кодека/Подсказка : MP3
Продолжительность : 1 ч. 35 м.
Вид битрейта : Постоянный
Битрейт : 128 Кбит/сек
Каналы : 2 канала
Частота : 48,0 КГц
Частота кадров : 41,667 кадра/сек (1152 SPF)
Метод сжатия : С потерями
Размер потока : 87,7 Мбайт (12%)
Выравнивание : Соединение по промежуткам
Продолжительность промежутка : 42 мс. (1,00 видеокадр)
Время предзагрузки промежутка : 504 мс.
Библиотека кодирования : LAME3.99r
Настройки программы : -m j -V 4 -q 2 -lowpass 17 -b 128

piratbit.org



28-11-2019 20:33  

Отключить всю рекламу на сайте

18-02-2021 18:41 Корпорация Ad Libitum Скачать торрент  

Топик был перенесен из форума Наши новые фильмы 2020 - 2021 в форум Для поглощённых раздач

Причина переноса: Корпорация Ad Libitum
bober100piratbit.org



    Дорогой пользователь! Огромная просьба, поблагодарите релизера, оцените раздачу и оставьте свои комментарий, если Вы скачали Корпорация Ad Libitum через торрент бесплатно! Внесите свою лепту в развитие PiratBit!
    Комментировать посты могут только пользователи прошедшие не сложную регистрацию
    Показать сообщения:    

    Корпорация Ad Libitum через торрент
    Скачать бесплатно Корпорация Ad Libitum
    Корпорация Ad Libitum скачать торрент
    Корпорация Ad Libitum смотреть онлайн
    Cкачать фильм Корпорация Ad Libitum бесплатно
    Корпорация Ad Libitum скачать торрент в хорошем качестве
    Корпорация Ad Libitum смотреть онлайн бесплатно в хорошем качестве


    Вы не можете начинать темы
    Вы не можете отвечать на сообщения
    Вы не можете редактировать свои сообщения
    Вы не можете удалять свои сообщения
    Вы не можете голосовать в опросах
    Вы не можете прикреплять файлы к сообщениям
    Вы можете скачивать файлы