Достать ножи: Стеклянная луковица

MVO

Добыча

Дубляж

Уэнсдэй

1 сезон

Тор

Дубляж

13 клиническая

1 сезон

Жестокая ночь

MVO

Одни из нас

1 сезон

Deluxe

pack

Рекомендуем

30

Пиратка

ВАЖНО

ВАЖНО

Ghostwire

Пиратка

jed

RePack

nioh2

RePack

RDR2

RePack

NEED FOR SPEED™ PAYBACK

RePack

скачать торрент

Кинопоиск HD

Острые козырьки 6 сезон

6 сезон

FAR CRY 6

RePack

скачать торрент

Лицензия

скачать торрент

MVO

1

1 сезон

скачать торрент

1 сезон

скачать торрент

Лицензия

  

Звук металла / Sound of Metal (Дариус Мардер) [2019, Драма, музыка, UHD WEB-DL 2160p] MVO [iTunes]

Звук металла через торрент piratbit.org

Размер: 13.16 GB | Добавлен: 1 год 11 мес. назад | Торрент скачан:60 раз
Смотреть онлайн | Скачать | Поддержите нас   

20-02-2021 05:33 Звук металла Скачать торрент  

Звук металла | Sound of Metal
Год выпуска: 2019
Страна: США, Бельгия
Студия: Caviar
Жанр: Драма, музыка
Продолжительность: 02:00:46
Перевод: Профессиональный (многоголосый) | iTunes
Субтитры: Русские (Forced, full), английские

Режиссер: Дариус Мардер

rating

В ролях: Риз Ахмед, Оливия Кук, Пол Раджи, Матьё Амальрик, Лорен Ридлофф, Джэми Хазарьян, Крис Перфетти, Уильям Ксифарас, Хиллари Бак, Майкл Тоу

Описание: Blackgammon – так называется панк-металическая группа, сколоченная барабанщиком Рубеном и его боевой подругой Лу. Для рокера Рубен – бывший наркоман, завязавший с пагубной зависимостью – слишком повёрнут на здоровом образе жизни, впрочем, от болезней, как от сумы и тюрьмы, лучше не зарекаться. Во время выступления он вдруг слышит, что ударные издают не фирменный саунд, а глухой гул. Это первый симптом неотвратимой потери слуха. И Рубен отправляется в уединённую обитель людей с глухотой, чтобы самому научиться быть глухим.

Качество: UHD WEB-DL 2160p
Формат: MKV

Видео: 3840x1600 at 23.976 fps, MPEG-H HEVC HDR Video, 14600 kbps avg
Аудио #01: 48 kHz, AC3, 5.1, 384 Kbps | iTunes | RUS |
Аудио #02: 48 kHz, E-AC3, 5.1, 640 Kbps | Оригинал | ENG |
скриншот  скриншот  скриншот  скриншот  скриншот  

General
Unique ID : 202859096227576340968504222833740110796 (0x989D3DA484B82EED8E0CFFCD83585BCC)
Complete name : D:VideoSound.of.Metal.2019.WEB-DL.2160p.HDR.seleZen.mkv
Format : Matroska
Format version : Version 4
File size : 13.2 GiB
Duration : 2 h 0 min
Overall bit rate : 15.6 Mb/s
Movie name : Sound of Metal 2019 from seleZen
Encoded date : UTC 2021-02-19 08:23:56
Writing application : mkvmerge v52.0.0 ('Secret For The Mad') 64-bit
Writing library : libebml v1.4.1 + libmatroska v1.6.2

Video
ID : 1
Format : HEVC
Format/Info : High Efficiency Video Coding
Format profile : Main 10@L5@Main
HDR format : SMPTE ST 2094 App 4, Version 1, HDR10+ Profile B compatible
Codec ID : V_MPEGH/ISO/HEVC
Duration : 2 h 0 min
Bit rate : 14.6 Mb/s
Width : 3 840 pixels
Height : 1 600 pixels
Display aspect ratio : 2.40:1
Frame rate mode : Constant
Frame rate : 23.976 (24000/1001) FPS
Color space : YUV
Chroma subsampling : 4:2:0
Bit depth : 10 bits
Bits/(Pixel*Frame) : 0.099
Stream size : 12.3 GiB (93%)
Language : English
Default : Yes
Forced : No
Color range : Limited
Color primaries : BT.2020
Transfer characteristics : PQ
Matrix coefficients : BT.2020 non-constant
Mastering display color pri : Display P3
Mastering display luminance : min: 0.0001 cd/m2, max: 1000 cd/m2
Maximum Content Light Level : 899 cd/m2
Maximum Frame-Average Light : 92 cd/m2

Audio #1
ID : 2
Format : AC-3
Format/Info : Audio Coding 3
Commercial name : Dolby Digital
Codec ID : A_AC3
Duration : 2 h 0 min
Bit rate mode : Constant
Bit rate : 384 kb/s
Channel(s) : 6 channels
Channel layout : L R C LFE Ls Rs
Sampling rate : 48.0 kHz
Frame rate : 31.250 FPS (1536 SPF)
Compression mode : Lossy
Stream size : 332 MiB (2%)
Title : MVO [iTunes]
Language : Russian
Service kind : Complete Main
Default : Yes
Forced : Yes

Audio #2
ID : 3
Format : E-AC-3
Format/Info : Enhanced AC-3
Commercial name : Dolby Digital Plus
Codec ID : A_EAC3
Duration : 2 h 0 min
Bit rate mode : Constant
Bit rate : 640 kb/s
Channel(s) : 6 channels
Channel layout : L R C LFE Ls Rs
Sampling rate : 48.0 kHz
Frame rate : 31.250 FPS (1536 SPF)
Compression mode : Lossy
Stream size : 553 MiB (4%)
Title : Original
Language : English
Service kind : Complete Main
Default : No
Forced : No

Text #1
ID : 4
Format : UTF-8
Codec ID : S_TEXT/UTF8
Codec ID/Info : UTF-8 Plain Text
Duration : 1 h 15 min
Bit rate : 4 b/s
Count of elements : 50
Stream size : 2.48 KiB (0%)
Title : Forced
Language : Russian
Default : Yes
Forced : Yes

Text #2
ID : 5
Format : UTF-8
Codec ID : S_TEXT/UTF8
Codec ID/Info : UTF-8 Plain Text
Duration : 1 h 59 min
Bit rate : 45 b/s
Count of elements : 963
Stream size : 40.0 KiB (0%)
Title : Full
Language : Russian
Default : No
Forced : No

Text #3
ID : 6
Format : UTF-8
Codec ID : S_TEXT/UTF8
Codec ID/Info : UTF-8 Plain Text
Duration : 43 min 1 s
Bit rate : 3 b/s
Count of elements : 63
Stream size : 1.08 KiB (0%)
Title : Forced
Language : English
Default : No
Forced : No

Text #4
ID : 7
Format : UTF-8
Codec ID : S_TEXT/UTF8
Codec ID/Info : UTF-8 Plain Text
Duration : 2 h 0 min
Bit rate : 39 b/s
Count of elements : 1469
Stream size : 35.0 KiB (0%)
Title : SDH
Language : English
Default : No
Forced : No

Menu
00:00:00.000 : en:Amazon Original
00:00:21.000 : en:Opening Credits
00:00:54.000 : en:Metal show
00:04:05.000 : en:Title Sequence
00:04:12.000 : en:Morning routines
00:08:19.000 : en:Life on the road
00:11:12.000 : en:Something's wrong
00:18:15.000 : en:Ruben tells Lou the truth
00:25:49.000 : en:Finding a care facility
00:35:31.000 : en:Ruben hits a breaking point
00:42:07.000 : en:Life within the deaf community
00:52:38.000 : en:Missing Lou
00:53:56.000 : en:Joe has a new assignment for Ruben
00:57:14.000 : en:An exercise in sitting
00:59:41.000 : en:Bit by bit
01:04:31.000 : en:Making friends and progress
01:07:42.000 : en:An offer for the future
01:10:34.000 : en:Breaking trust
01:17:27.000 : en:Letting go
01:20:38.000 : en:Surgery
01:21:44.000 : en:Moments of stillness
01:28:44.000 : en:Adjustment period
01:34:15.000 : en:Ruben arrives in Paris
01:43:08.000 : en:Party time
01:48:06.000 : en:Revelations
01:53:44.000 : en:Moments of stillness
01:56:14.000 : en:End Credits




Скачать Звук металла через торрент https://i114.fastpic.ru/big/2021/0220/29/16d256b60f3b00d7210764f5638f3329.jpg Скачать, смотреть онлайн Звук металла бесплантно в хорошем качестве Описание: Blackgammon – так называется панк-металическая группа, сколоченная барабанщиком Рубеном и его боевой подругой Лу. Для рокера ... 8 10 3
Торрент: Зарегистрирован [2021-02-20 05:33] · скачан: 60 раз
Статус: √ проверено
Размер: 13.16 GB
Как cкачать? Как скачать Звук металла через торрент | UTorrent

% Раздел Тема Автор DL S | L
Фильмы [HD 720p, 1080p] (Хороший звук DUB, MVO) [ 13.84 GB ] Звук металла / Sound of Metal | iTunes | 1080p bober100 Скачать
1 | 0
Фильмы 2019-2020 [DVDrip, WEB-DLRip, HDrip] (DUB, MVO) [ 2.05 GB ] Звук металла / Sound of Metal | iTunes | HDRip-AVC Lithuania Скачать
1 | 0
Фильмы (Blu-ray, BD-Remux, HDDVD) [ 19.2 GB ] Звук металла / Sound of Metal | iTunes | BD Remux 1080p bober100 Скачать
1 | 0
Фильмы [HD 720p, 1080p] (Хороший звук DUB, MVO) [ 7.07 GB ] Звук металла / Sound of Metal | iTunes | 720p bober100 Скачать
1 | 0
Фильмы 2019-2020 [DVDrip, WEB-DLRip, HDrip] (DUB, MVO) [ 1.46 GB ] Звук металла / Sound of Metal | iTunes | BDRip bober100 Скачать
1 | 0
Фильмы (WEB-DL 720p, 1080p) [ 8.87 GB ] Звук металла / Sound of Metal | iTunes | 1080p bober100 Скачать
1 | 0

28-11-2019 20:33  


Отключить вcю реклaмy на сайте, в т.ч. и в плеере онлайн просмотра!

    Дорогой пользователь! Огромная просьба, поблагодарите релизера, оцените раздачу и оставьте свои комментарий, если Вы скачали Звук металла через торрент бесплатно!!
    Комментировать посты могут только пользователи прошедшие не сложную регистрацию
    Показать сообщения:    


    Звук металла через торрент
    Скачать бесплатно Звук металла
    Звук металла скачать торрент
    Звук металла смотреть онлайн
    Cкачать фильм Звук металла бесплатно
    Звук металла скачать торрент в хорошем качестве
    Звук металла смотреть онлайн бесплатно в хорошем качестве
    Вы не можете начинать темы
    Вы не можете отвечать на сообщения
    Вы не можете редактировать свои сообщения
    Вы не можете удалять свои сообщения
    Вы не можете голосовать в опросах
    Вы не можете прикреплять файлы к сообщениям
    Вы можете скачивать файлы
    Звук металла / Sound of Metal [2019, Драма, музыка, UHD WEB-DL 2160p] MVO [iTunes] смотреть онлайн, скачать торрент picoco.icu