2 сезон

iTunes

WEBRip

1

2 сезон

iTunes

1 сезон

1 сезон

RePack

30

Ultimate

ВАЖНО

ИГРА 18+

pack

RePack

MK11
pack

Легкие деньги

RePack

jed

RePack

fifa19

RePack

RDR2

RePack

NEED FOR SPEED™ PAYBACK

4 сезон

9 сезон

Бесстыжие 9 сезон

Все сериалы

все сериалы на PB.wtf

RePack

FAR CRY 5

Anonymous, добрый вечер, мы не успеваем собрать деньги на оплату серверов за февраль, помогите нам пожалуйста в это трудное время. В качестве благодарности мы отключим Вам всю рекламу на сайте (укажите свой ник в строку Ваше имя)!

×
  
Magnet ссылка

Денежный самолёт / Money Plane (Эндрю Лоуренс) [2020, Боевик, BDRip 720p] 2xMVO (rus, ukr) [iTunes] piratbit.org

Денежный самолёт через торрент piratbit.org

Раздают: 7 [ 98 KB/s ]
Размер: 3.49 GB | Добавлен: 12 д. назад | Торрент скачан:63 раза
Скачать  

20-02-2021 06:32 Денежный самолёт Скачать торрент  

Денежный самолёт | Money Plane
Год выпуска: 2020
Страна: США
Студия: Dawn's Light, Taylor & Dodge
Жанр: Боевик
Продолжительность: 01:22:01
Перевод:
Профессиональный (многоголосый, закадровый) | iTunes
Профессиональный (многоголосый, закадровый) | украинский | iTunes
Субтитры: отсутствуют

Режиссер: Эндрю Лоуренс

rating

В ролях: Адам Коуплэнд, Келси Грэммер, Томас Джейн, Дениз Ричардс, Катрина Норма, Патрик Ламонт мл., Эндрю Лоуренс, Джозеф Лоуренс, Мэттью Лоуренс, Ал Сапиенца

Описание: Профессиональный вор, имеющий многомиллионные долги, в обмен на жизнь своей семьи должен совершить дерзкое ограбление – ограбить воздушное казино, оборудованное на борту большого лайнера, где собираются самые опасные мировые преступники.

Качество: BDRip 720p
Формат: MKV

Видео: MPEG-4 AVC, 4868 Kbit/s, 1280x720, 23.976 fps
Аудио 1: 48 kHz, AC3 Dolby Digital, 3/2 (L, C, R, l, r) + LFE ch, ~384 kbps | русский
Аудио 2: 48 kHz, AC3 Dolby Digital, 2/0 (L, R) ch, ~192 kbps | украинский
Аудио 3: 48 kHz, AC3 Dolby Digital, 3/2 (L, C, R, l, r) + LFE ch, ~640 kbps | английский
скриншот  скриншот  скриншот  скриншот  

Denezhnyiy.samolet.2020.BDRip.720p.ELEKTRI4KA.UNIONGANG.mkv
Format : Matroska
Format version : Version 4 / Version 2
File size : 3.49 GiB
Duration : 1 h 22 min
Overall bit rate : 6 085 kb/s
Movie name : Denezhnyiy.samolet.2020.BDRip.720p.ELEKTRI4KA.UNIONGANG.
Encoded date : UTC 2021-02-19 16:11:10
Writing application : mkvmerge v8.3.0 ('Over the Horizon') 64bit
Writing library : libebml v1.3.1 + libmatroska v1.4.2

Video
ID : 1
Format : AVC
Format/Info : Advanced Video Codec
Format profile : High@L4.1
Format settings, CABAC : Yes
Format settings, Reference frames : 8 frames
Codec ID : V_MPEG4/ISO/AVC
Duration : 1 h 22 min
Bit rate : 4 868 kb/s
Width : 1 280 pixels
Height : 720 pixels
Display aspect ratio : 16:9
Frame rate mode : Constant
Frame rate : 23.976 (24000/1001) FPS
Color space : YUV
Chroma subsampling : 4:2:0
Bit depth : 8 bits
Scan type : Progressive
Bits/(Pixel*Frame) : 0.220
Stream size : 2.79 GiB (80%)
Writing library : x264 core 161 r3027 4121277
Encoding settings : cabac=1 / ref=8 / deblock=1:-3:-3 / analyse=0x3:0x133 / me=umh / subme=9 / psy=1 / psy_rd=1.00:0.00 / mixed_ref=1 / me_range=32 / chroma_me=1 / trellis=2 / 8x8dct=1 / cqm=0 / deadzone=21, 11 / fast_pskip=0 / chroma_qp_offset=-2 / threads=22 / lookahead_threads=3 / sliced_threads=0 / nr=0 / decimate=0 / interlaced=0 / bluray_compat=0 / constrained_intra=0 / bframes=9 / b_pyramid=2 / b_adapt=2 / b_bias=0 / direct=3 / weightb=1 / open_gop=0 / weightp=2 / keyint=250 / keyint_min=23 / scenecut=40 / intra_refresh=0 / rc=crf / mbtree=0 / crf=17.0 / qcomp=0.60 / qpmin=0 / qpmax=69 / qpstep=4 / ip_ratio=1.40 / pb_ratio=1.30 / aq=3:0.88
Default : Yes
Forced : No
Color range : Limited
Matrix coefficients : BT.709

Audio #1
ID : 2
Format : AC-3
Format/Info : Audio Coding 3
Mode extension : CM (complete main)
Format settings, Endianness : Big
Codec ID : A_AC3
Duration : 1 h 22 min
Bit rate mode : Constant
Bit rate : 384 kb/s
Channel(s) : 6 channels
Channel positions : Front: L C R, Side: L R, LFE
Sampling rate : 48.0 kHz
Frame rate : 31.250 FPS (1536 spf)
Bit depth : 16 bits
Compression mode : Lossy
Stream size : 225 MiB (6%)
Title : MVO (iTunes)
Language : Russian
Default : Yes
Forced : Yes

Audio #2
ID : 3
Format : AC-3
Format/Info : Audio Coding 3
Mode extension : CM (complete main)
Format settings, Endianness : Big
Codec ID : A_AC3
Duration : 1 h 22 min
Bit rate mode : Constant
Bit rate : 192 kb/s
Channel(s) : 2 channels
Channel positions : Front: L R
Sampling rate : 48.0 kHz
Frame rate : 31.250 FPS (1536 spf)
Bit depth : 16 bits
Compression mode : Lossy
Stream size : 113 MiB (3%)
Title : MVO (iTunes)
Language : Ukrainian
Default : No
Forced : No

Audio #3
ID : 4
Format : AC-3
Format/Info : Audio Coding 3
Mode extension : CM (complete main)
Format settings, Endianness : Big
Codec ID : A_AC3
Duration : 1 h 22 min
Bit rate mode : Constant
Bit rate : 640 kb/s
Channel(s) : 6 channels
Channel positions : Front: L C R, Side: L R, LFE
Sampling rate : 48.0 kHz
Frame rate : 31.250 FPS (1536 spf)
Bit depth : 16 bits
Compression mode : Lossy
Stream size : 376 MiB (11%)
Title : Original
Language : English
Default : No
Forced : No

Menu
00:00:00.000 : en:Chapter 01
00:10:58.992 : en:Chapter 02
00:24:30.219 : en:Chapter 03
00:33:35.555 : en:Chapter 04
00:43:34.070 : en:Chapter 05
00:57:17.809 : en:Chapter 06
01:09:03.723 : en:Chapter 07
01:19:39.775 : en:Chapter 08

piratbit.org



Скачать Денежный самолёт через торрент https://i114.fastpic.ru/big/2021/0219/43/a7faaef1b419d9ddc935bdefeb4d5343.jpg Скачать фильм Денежный самолёт через торрент бесплантно в хорошем качестве Описание: Профессиональный вор, имеющий многомиллионные долги, в обмен на жизнь своей семьи должен совершить дерзкое ограбление – ограбить ... 7.8 10 4
Торрент: Зарегистрирован [2021-02-20 06:32] · скачан: 63 раз
Статус: √ проверено
Размер: 3.49 GB
Как cкачать? Как скачать Денежный самолёт через торрент | UTorrent

% Раздел Тема Автор DL S | L
Фильмы [HD 720p, 1080p] (Хороший звук DUB, MVO) [ 8.37 GB ] Денежный самолёт / Money Plane [2020 BDRip 1080p] MVO bober100 Скачать
9 | 0
Фильмы 2019-2020 [DVDrip, WEB-DLRip, HDrip] (DUB, MVO) [ 717 MB ] Денежный самолёт / Money Plane [2020 HDRip многоголосый закадровый ""] coc900 Скачать
6 | 0
Фильмы 2019-2020 [DVDrip, WEB-DLRip, HDrip] (DUB, MVO) [ 1.46 GB ] Денежный самолёт / Money Plane [2020 HDRip] 2xMVO bober100 Скачать
12 | 0
Фильмы 2019-2020 [DVDrip, WEB-DLRip, HDrip] (DUB, MVO) [ 2.05 GB ] Денежный самолёт / Money Plane [2020 HDRip-AVC] [MVO] от MediaBit Lithuania Скачать
4 | 0

28-11-2019 20:33  

Отключить всю рекламу на сайте

    Дорогой пользователь! Огромная просьба, поблагодарите релизера, оцените раздачу и оставьте свои комментарий, если Вы скачали Денежный самолёт через торрент бесплатно! Внесите свою лепту в развитие PiratBit!
    Комментировать посты могут только пользователи прошедшие не сложную регистрацию
    Показать сообщения:    

    Денежный самолёт через торрент
    Скачать бесплатно Денежный самолёт
    Денежный самолёт скачать торрент
    Денежный самолёт смотреть онлайн
    Cкачать фильм Денежный самолёт бесплатно
    Денежный самолёт скачать торрент в хорошем качестве
    Денежный самолёт смотреть онлайн бесплатно в хорошем качестве


    Вы не можете начинать темы
    Вы не можете отвечать на сообщения
    Вы не можете редактировать свои сообщения
    Вы не можете удалять свои сообщения
    Вы не можете голосовать в опросах
    Вы не можете прикреплять файлы к сообщениям
    Вы можете скачивать файлы