2 сезон

iTunes

WEBRip

1

2 сезон

iTunes

1 сезон

1 сезон

RePack

30

Ultimate

ВАЖНО

ИГРА 18+

pack

RePack

MK11
pack

Легкие деньги

RePack

jed

RePack

fifa19

RePack

RDR2

RePack

NEED FOR SPEED™ PAYBACK

4 сезон

9 сезон

Бесстыжие 9 сезон

Все сериалы

все сериалы на PB.wtf

RePack

FAR CRY 5

Anonymous, доброй ночи, мы не успеваем собрать деньги на оплату серверов за февраль, помогите нам пожалуйста в это трудное время. В качестве благодарности мы отключим Вам всю рекламу на сайте (укажите свой ник в строку Ваше имя)!

×
  
Magnet ссылка

Денежный самолёт / Money Plane (Эндрю Лоуренс) [2020, Боевик, BDRip 1080p] MVO [iTunes] piratbit.org

Денежный самолёт через торрент piratbit.org

Раздают: 6 [ 291 KB/s ]
Размер: 8.37 GB | Добавлен: 4 д. назад | Торрент скачан:93 раза
Скачать  

20-02-2021 06:32 Денежный самолёт Скачать торрент  

Денежный самолёт | Money Plane
Год выпуска: 2020
Страна: США
Студия: Dawn's Light, Taylor & Dodge
Жанр: Боевик
Продолжительность: 01:22:01
Перевод: Профессиональный (многоголосый, закадровый) | iTunes
Субтитры: отсутствуют

Режиссер: Эндрю Лоуренс

rating

В ролях: Адам Коуплэнд, Келси Грэммер, Томас Джейн, Дениз Ричардс, Катрина Норма, Патрик Ламонт мл., Эндрю Лоуренс, Джозеф Лоуренс, Мэттью Лоуренс, Ал Сапиенца

Описание: Профессиональный вор, имеющий многомиллионные долги, в обмен на жизнь своей семьи должен совершить дерзкое ограбление – ограбить воздушное казино, оборудованное на борту большого лайнера, где собираются самые опасные мировые преступники.

Качество: BDRip 1080p
Формат: MKV

Видео: MPEG-4 AVC, 12.7 Mbit/s, 1920x1080, 23.976 fps
Аудио 1: 48 kHz, AC3 Dolby Digital, 3/2 (L, C, R, l, r) + LFE ch, ~384 kbps | русский
Аудио 2: 48 kHz, DTS, 3/2 (L, C, R, l, r) + LFE ch, ~1509 kbps | английский
скриншот  скриншот  скриншот  скриншот  

Denezhnyiy.samolet.2020.BDRip.1080p.ELEKTRI4KA.UNIONGANG.mkv
Format: Matroska
Format version: Version 4 / Version 2
File size: 8.37 GiB
Duration: 1 h 22 min
Overall bit rate: 14.6 Mb/s
Movie name: Money Plane (2020) - ELEKTRI4KA
Encoded date: UTC 2021-02-19 16:37:36
Writing application: mkvmerge v8.3.0 ('Over the Horizon') 64bit
Writing library: libebml v1.3.1 + libmatroska v1.4.2

Video
ID: 1
Format: AVC
Format/Info: Advanced Video Codec
Format profile: High@L4.1
Format settings, CABAC: Yes
Format settings, Reference frames: 4 frames
Codec ID: V_MPEG4/ISO/AVC
Duration: 1 h 22 min
Bit rate: 12.7 Mb/s
Width: 1 920 pixels
Height: 1 080 pixels
Display aspect ratio: 16:9
Frame rate mode: Constant
Frame rate: 23.976 (24000/1001) FPS
Color space: YUV
Chroma subsampling: 4:2:0
Bit depth: 8 bits
Scan type: Progressive
Bits/(Pixel*Frame): 0.256
Stream size: 7.28 GiB (87%)
Title: Money Plane (2020) - ELEKTRI4KA
Writing library: x264 core 161 r3027 4121277
Encoding settings: cabac=1 / ref=4 / deblock=1:-3:-3 / analyse=0x3:0x133 / me=umh / subme=9 / psy=1 / psy_rd=1.00:0.00 / mixed_ref=1 / me_range=32 / chroma_me=1 / trellis=2 / 8x8dct=1 / cqm=0 / deadzone=21, 11 / fast_pskip=0 / chroma_qp_offset=-2 / threads=34 / lookahead_threads=5 / sliced_threads=0 / nr=0 / decimate=0 / interlaced=0 / bluray_compat=0 / constrained_intra=0 / bframes=9 / b_pyramid=2 / b_adapt=2 / b_bias=0 / direct=3 / weightb=1 / open_gop=0 / weightp=2 / keyint=250 / keyint_min=23 / scenecut=40 / intra_refresh=0 / rc=crf / mbtree=0 / crf=17.7 / qcomp=0.60 / qpmin=0 / qpmax=69 / qpstep=4 / ip_ratio=1.40 / pb_ratio=1.30 / aq=3:0.88
Default: Yes
Forced: No
Color range: Limited
Matrix coefficients: BT.709

Audio #1
ID: 2
Format: AC-3
Format/Info: Audio Coding 3
Mode extension: CM (complete main)
Format settings, Endianness: Big
Codec ID: A_AC3
Duration: 1 h 22 min
Bit rate mode: Constant
Bit rate: 384 kb/s
Channel(s): 6 channels
Channel positions: Front: L C R, Side: L R, LFE
Sampling rate: 48.0 kHz
Frame rate: 31.250 FPS (1536 spf)
Bit depth: 16 bits
Compression mode: Lossy
Stream size: 225 MiB (3%)
Title: iTunes
Language: Russian
Default: Yes
Forced: No

Audio #2
ID: 3
Format: DTS
Format/Info: Digital Theater Systems
Mode: 16
Format settings, Endianness: Big
Codec ID: A_DTS
Duration: 1 h 22 min
Bit rate mode: Constant
Bit rate: 1 509 kb/s
Channel(s): 6 channels
Channel positions: Front: L C R, Side: L R, LFE
Sampling rate: 48.0 kHz
Frame rate: 93.750 FPS (512 spf)
Bit depth: 24 bits
Compression mode: Lossy
Stream size: 885 MiB (10%)
Title: Original
Language: English
Default: No
Forced: No

Menu
00:00:00.000: en:Chapter 01
00:10:58.992: en:Chapter 02
00:24:30.219: en:Chapter 03
00:33:35.555: en:Chapter 04
00:43:34.070: en:Chapter 05
00:57:17.809: en:Chapter 06
01:09:03.723: en:Chapter 07
01:19:39.775: en:Chapter 08

piratbit.org



Скачать Денежный самолёт через торрент https://i114.fastpic.ru/big/2021/0219/43/a7faaef1b419d9ddc935bdefeb4d5343.jpg Скачать фильм Денежный самолёт через торрент бесплантно в хорошем качестве Описание: Профессиональный вор, имеющий многомиллионные долги, в обмен на жизнь своей семьи должен совершить дерзкое ограбление – ограбить ... 10 10 5
Торрент: Зарегистрирован [2021-02-20 06:32] · скачан: 93 раз
Статус: √ проверено
Размер: 8.37 GB
Как cкачать? Как скачать Денежный самолёт через торрент | UTorrent

% Раздел Тема Автор DL S | L
* Фильмы 2019-2020 [DVDrip, WEB-DLRip, HDrip] (DUB, MVO) [ 717 MB ] Денежный самолёт / Money Plane [2020 HDRip многоголосый закадровый ""] coc900 Скачать
4 | 0
Фильмы [HD 720p, 1080p] (Хороший звук DUB, MVO) [ 3.49 GB ] Денежный самолёт / Money Plane [2020 BDRip 720p] 2xMVO bober100 Скачать
2 | 0
Фильмы 2019-2020 [DVDrip, WEB-DLRip, HDrip] (DUB, MVO) [ 1.46 GB ] Денежный самолёт / Money Plane [2020 HDRip] 2xMVO bober100 Скачать
10 | 0
Фильмы 2019-2020 [DVDrip, WEB-DLRip, HDrip] (DUB, MVO) [ 2.05 GB ] Денежный самолёт / Money Plane [2020 HDRip-AVC] [MVO] от MediaBit Lithuania Скачать
8 | 1

28-11-2019 20:33  

Отключить всю рекламу на сайте

23-02-2021 02:10 Денежный самолёт Скачать торрент  

фильм редкое дерьмо, не тратьте своё времяpiratbit.org



    Дорогой пользователь! Огромная просьба, поблагодарите релизера, оцените раздачу и оставьте свои комментарий, если Вы скачали Денежный самолёт через торрент бесплатно! Внесите свою лепту в развитие PiratBit!
    Комментировать посты могут только пользователи прошедшие не сложную регистрацию
    Показать сообщения:    

    Денежный самолёт через торрент
    Скачать бесплатно Денежный самолёт
    Денежный самолёт скачать торрент
    Денежный самолёт смотреть онлайн
    Cкачать фильм Денежный самолёт бесплатно
    Денежный самолёт скачать торрент в хорошем качестве
    Денежный самолёт смотреть онлайн бесплатно в хорошем качестве


    Вы не можете начинать темы
    Вы не можете отвечать на сообщения
    Вы не можете редактировать свои сообщения
    Вы не можете удалять свои сообщения
    Вы не можете голосовать в опросах
    Вы не можете прикреплять файлы к сообщениям
    Вы можете скачивать файлы