2 сезон

iTunes

WEBRip

1

2 сезон

iTunes

1 сезон

1 сезон

RePack

30

Ultimate

ВАЖНО

ИГРА 18+

pack

RePack

MK11
pack

Легкие деньги

RePack

jed

RePack

fifa19

RePack

RDR2

RePack

NEED FOR SPEED™ PAYBACK

4 сезон

9 сезон

Бесстыжие 9 сезон

Все сериалы

все сериалы на PB.wtf

RePack

FAR CRY 5

Anonymous, доброе утро, мы не успеваем собрать деньги на оплату серверов за февраль, помогите нам пожалуйста в это трудное время. В качестве благодарности мы отключим Вам всю рекламу на сайте (укажите свой ник в строку Ваше имя)!

×
  
Magnet ссылка

Капитан / Le Capitan (Андре Юнебель) [1960, боевик, приключения, BDRip-HEVC 1080p] DUB + 2хMVO + VO piratbit.org

Капитан через торрент piratbit.org

Раздают: 1 [ 0 KB/s ]
Размер: 6.01 GB | Добавлен: 12 д. назад | Торрент скачан:3 раза
Скачать  

20-02-2021 08:58 Капитан Скачать торрент  

Название: Капитан
Оригинальное название: Le Capitan
Год производства: 1960
Жанр: боевик, приключения
Режиссер: Андре Юнебель
В ролях: Жан Маре, Бурвиль, Эльза Мартинелли, Пьеретт Бруно, Лизе Деламар, Анни Андерсон, Ги Делорм, Жаклин Порель, Жан-Поль Коклен, Рафаэль Паторни

О фильме: 1616 год. Сыну убитого Генриха IV Людовику XIII пятнадцать лет. Он ещё мал, чтобы управлять страной. И королева-мать Мария Медичи назначает на пост регента Кончини, который жаждет сам получить трон и титул короля Франции. Молодой дворянин Франсуа, втянутый в эту интригу, искренне предан законному наследнику престола Людовику. Он прилагает все усилия, чтобы встретиться с ним и предупредить его об опасности. В этом ему помогает уличный фокусник и весельчак Коголин...



Страна: Франция, Италия
Студия: Da.Ma. Cinematografica, P.A.C., Pathé Consortium Cinéma
Продолжительность: 01:44:48
Перевод: дублированный, профессиональный многоголосый, профессиональный одноголосый

Качество: BDRip-HEVC 1080p
Кодек: HEVC (x265)
Видео: 1920x816 (2.35:1), 6413 Кбит/сек, HEVC (Main10@L.4.1@High) 10 бит
Звук:
Аудио1: AC3, 6 ch, 384 Kbps - Русский, Дублированный (+ вставки MVO на непереведённые фрагменты)
Аудио2: AC3, 6 ch, 384 Kbps - Русский, Многоголосый (CP Digital)
Аудио3: AC3, 2 ch, 192 Kbps - Русский, Многоголосый (REN-TV)
Аудио4: AC3, 2 ch, 192 Kbps - Русский, Одноголосый (Всеволод Абдулов)
Аудио5: AC3, 6 ch, 640 Kbps - France, Original
Субтитры: Русские полные (SRT), France full (SRT)
Навигация по главам: Есть
x265 [info]: frame I: 629, Avg QP:17.21 kb/s: 26866.29
x265 [info]: frame P: 35426, Avg QP:18.78 kb/s: 15263.97
x265 [info]: frame B: 114862, Avg QP:20.65 kb/s: 3570.38
x265 [info]: Weighted P-Frames: Y:11.8% UV:9.4%
x265 [info]: Weighted B-Frames: Y:4.6% UV:3.3%
x265 [info]: consecutive B-frames: 1.3% 3.0% 4.5% 72.2% 6.9% 11.0% 0.6% 0.3% 0.2%
x265 [info]: encoded 150917 frames in 165070.26s (0.91 fps), 6412.41 kb/s, Avg QP:20.20
Общее
Уникальный идентификатор : 91474184075750222279387952540745020139 (0x44D1497A78377A828A0F25C1E78D32EB)
Полное имя : \\.\Капитан.Le.Capitan.1960.BDRip-HEVC.1080p.mkv
Формат : Matroska
Версия формата : Version 4
Размер файла : 6,01 Гбайт
Продолжительность : 1 ч. 44 м.
Общий поток : 8 208 Кбит/сек
Название фильма : Капитан.Le.Capitan.1960.BDRip-HEVC.1080p.
Дата кодирования : UTC 2021-02-20 08:14:55
Программа кодирования : mkvmerge v53.0.0 ('Fool's Gold') 64-bit
Библиотека кодирования : libebml v1.4.1 + libmatroska v1.6.2

Видео
Идентификатор : 1
Формат : HEVC
Формат/Информация : High Efficiency Video Coding
Профиль формата : Main 10@L4.1@High
Идентификатор кодека : V_MPEGH/ISO/HEVC
Продолжительность : 1 ч. 44 м.
Битрейт : 6 413 Кбит/сек
Ширина : 1 920 пикселей
Высота : 816 пикселей
Соотношение сторон : 2,35:1
Режим частоты кадров : Постоянный
Частота кадров : 24,000 кадра/сек
Цветовое пространство : YUV
Субдискретизация насыщенности : 4:2:0
Битовая глубина : 10 бит
Бит/(Пиксели*Кадры) : 0.171
Размер потока : 4,69 Гбайт (78%)
Заголовок : Le Capitan / Rip by OldGamer
Библиотека кодирования : x265 3.4+12-g9103319fc:[Windows][GCC 10.2.0][64 bit] 10bit
Настройки программы : cpuid=1111039 / frame-threads=3 / numa-pools=8 / wpp / no-pmode / no-pme / no-psnr / no-ssim / log-level=2 / input-csp=1 / input-res=1920x816 / interlace=0 / total-frames=150917 / level-idc=41 / high-tier=1 / uhd-bd=0 / ref=5 / no-allow-non-conformance / no-repeat-headers / annexb / no-aud / no-hrd / info / hash=0 / no-temporal-layers / open-gop / min-keyint=23 / keyint=240 / gop-lookahead=0 / bframes=8 / b-adapt=2 / b-pyramid / bframe-bias=0 / rc-lookahead=40 / lookahead-slices=0 / scenecut=40 / hist-scenecut=0 / radl=0 / no-splice / no-intra-refresh / ctu=32 / min-cu-size=8 / rect / amp / max-tu-size=32 / tu-inter-depth=4 / tu-intra-depth=4 / limit-tu=1 / rdoq-level=2 / dynamic-rd=0.00 / no-ssim-rd / signhide / no-tskip / nr-intra=0 / nr-inter=0 / no-constrained-intra / no-strong-intra-smoothing / max-merge=5 / limit-refs=3 / no-limit-modes / me=3 / subme=7 / merange=57 / temporal-mvp / no-frame-dup / no-hme / weightp / weightb / no-analyze-src-pics / deblock=-3:-3 / no-sao / no-sao-non-deblock / rd=6 / selective-sao=0 / no-early-skip / rskip / no-fast-intra / no-tskip-fast / no-cu-lossless / b-intra / no-splitrd-skip / rdpenalty=0 / psy-rd=2.00 / psy-rdoq=1.00 / no-rd-refine / no-lossless / cbqpoffs=0 / crqpoffs=0 / rc=crf / crf=18.4 / qcomp=0.60 / qpstep=4 / stats-write=0 / stats-read=0 / vbv-maxrate=50000 / vbv-bufsize=50000 / vbv-init=0.9 / crf-max=0.0 / crf-min=0.0 / ipratio=1.40 / pbratio=1.30 / aq-mode=1 / aq-strength=1.00 / no-cutree / zone-count=1 / zones: / start-frame=150667 / end-frame=150917 / qp=36 / no-strict-cbr / qg-size=32 / no-rc-grain / qpmax=69 / qpmin=0 / no-const-vbv / sar=1 / overscan=0 / videoformat=5 / range=0 / colorprim=2 / transfer=2 / colormatrix=2 / chromaloc=0 / display-window=0 / cll=0,0 / min-luma=0 / max-luma=1023 / log2-max-poc-lsb=8 / vui-timing-info / vui-hrd-info / slices=1 / no-opt-qp-pps / no-opt-ref-list-length-pps / no-multi-pass-opt-rps / scenecut-bias=0.00 / hist-threshold=0.01 / no-opt-cu-delta-qp / no-aq-motion / no-hdr10 / no-hdr10-opt / no-dhdr10-opt / no-idr-recovery-sei / analysis-reuse-level=0 / analysis-save-reuse-level=0 / analysis-load-reuse-level=0 / scale-factor=0 / refine-intra=0 / refine-inter=0 / refine-mv=1 / refine-ctu-distortion=0 / no-limit-sao / ctu-info=0 / no-lowpass-dct / refine-analysis-type=0 / copy-pic=1 / max-ausize-factor=1.0 / no-dynamic-refine / no-single-sei / no-hevc-aq / no-svt / no-field / qp-adaptation-range=1.00 / no-scenecut-aware-qpconformance-window-offsets / right=0 / bottom=0 / decoder-max-rate=0
Язык : French
Default : Да
Forced : Нет

Аудио #1
Идентификатор : 2
ID in the original source medium : 4353 (0x1101)
Формат : AC-3
Формат/Информация : Audio Coding 3
Коммерческое название : Dolby Digital
Идентификатор кодека : A_AC3
Продолжительность : 1 ч. 44 м.
Вид битрейта : Постоянный
Битрейт : 384 Кбит/сек
Каналы : 6 каналов
Channel layout : L R C LFE Ls Rs
Частота : 48,0 КГц
Частота кадров : 31,250 кадров/сек (1536 SPF)
Метод сжатия : С потерями
Размер потока : 288 Мбайт (5%)
Заголовок : DUB (+ вставки MVO на непереведённые фрагменты)
Язык : Russian
Service kind : Complete Main
Default : Да
Forced : Нет
Носитель оригинала : Blu-ray

Аудио #2
Идентификатор : 3
ID in the original source medium : 4352 (0x1100)
Формат : AC-3
Формат/Информация : Audio Coding 3
Коммерческое название : Dolby Digital
Идентификатор кодека : A_AC3
Продолжительность : 1 ч. 44 м.
Вид битрейта : Постоянный
Битрейт : 384 Кбит/сек
Каналы : 6 каналов
Channel layout : L R C LFE Ls Rs
Частота : 48,0 КГц
Частота кадров : 31,250 кадров/сек (1536 SPF)
Метод сжатия : С потерями
Размер потока : 288 Мбайт (5%)
Заголовок : MVO (CP Digital)
Язык : Russian
Service kind : Complete Main
Default : Нет
Forced : Нет
Носитель оригинала : Blu-ray

Аудио #3
Идентификатор : 4
ID in the original source medium : 4354 (0x1102)
Формат : AC-3
Формат/Информация : Audio Coding 3
Коммерческое название : Dolby Digital
Идентификатор кодека : A_AC3
Продолжительность : 1 ч. 44 м.
Вид битрейта : Постоянный
Битрейт : 192 Кбит/сек
Каналы : 2 канала
Channel layout : L R
Частота : 48,0 КГц
Частота кадров : 31,250 кадров/сек (1536 SPF)
Метод сжатия : С потерями
Размер потока : 144 Мбайт (2%)
Заголовок : MVO (REN-TV)
Язык : Russian
Service kind : Complete Main
Default : Нет
Forced : Нет
Носитель оригинала : Blu-ray

Аудио #4
Идентификатор : 5
ID in the original source medium : 4355 (0x1103)
Формат : AC-3
Формат/Информация : Audio Coding 3
Коммерческое название : Dolby Digital
Идентификатор кодека : A_AC3
Продолжительность : 1 ч. 44 м.
Вид битрейта : Постоянный
Битрейт : 192 Кбит/сек
Каналы : 2 канала
Channel layout : L R
Частота : 48,0 КГц
Частота кадров : 31,250 кадров/сек (1536 SPF)
Метод сжатия : С потерями
Размер потока : 144 Мбайт (2%)
Заголовок : VO (Всеволод Абдулов)
Язык : Russian
Service kind : Complete Main
Default : Нет
Forced : Нет
Носитель оригинала : Blu-ray

Аудио #5
Идентификатор : 6
Формат : AC-3
Формат/Информация : Audio Coding 3
Коммерческое название : Dolby Digital
Идентификатор кодека : A_AC3
Продолжительность : 1 ч. 44 м.
Вид битрейта : Постоянный
Битрейт : 640 Кбит/сек
Каналы : 6 каналов
Channel layout : L R C LFE Ls Rs
Частота : 48,0 КГц
Частота кадров : 31,250 кадров/сек (1536 SPF)
Метод сжатия : С потерями
Размер потока : 480 Мбайт (8%)
Язык : French
Service kind : Complete Main
Default : Нет
Forced : Нет

Текст #1
Идентификатор : 7
Формат : UTF-8
Идентификатор кодека : S_TEXT/UTF8
Идентификатор кодека/Информация : UTF-8 Plain Text
Продолжительность : 1 ч. 44 м.
Битрейт : 72 бит/сек
Count of elements : 956
Размер потока : 55,2 Кбайт (0%)
Язык : Russian
Default : Нет
Forced : Нет

Текст #2
Идентификатор : 8
Формат : UTF-8
Идентификатор кодека : S_TEXT/UTF8
Идентификатор кодека/Информация : UTF-8 Plain Text
Продолжительность : 1 ч. 42 м.
Битрейт : 42 бит/сек
Count of elements : 956
Размер потока : 31,9 Кбайт (0%)
Язык : French
Default : Нет
Forced : Нет

Меню
00:00:00.000 : en:Chapter 01
00:01:36.000 : en:Chapter 02
00:02:29.000 : en:Chapter 03
00:11:54.916 : en:Chapter 04
00:24:52.041 : en:Chapter 05
00:36:02.000 : en:Chapter 06
00:51:31.500 : en:Chapter 07
01:08:20.416 : en:Chapter 08
01:15:38.708 : en:Chapter 09
01:27:48.791 : en:Chapter 10
01:30:23.333 : en:Chapter 11
01:44:43.708 : en:Chapter 12


Релиз от: OldGamer piratbit.org



Скачать Капитан через торрент https://img11.lostpic.net/2021/02/20/108cc80efd5189fbc282ecc15af49957.jpg Скачать фильм Капитан через торрент бесплантно в хорошем качестве О фильме: 1616 год. Сыну убитого Генриха IV Людовику XIII пятнадцать лет. Он ещё мал, чтобы управлять страной. И королева-мать Мария Медичи ... 10 10 1
Торрент: Зарегистрирован [2021-02-20 08:58] · скачан: 3 раз
Статус: √ проверено
Размер: 6.01 GB
Как cкачать? Как скачать Капитан через торрент | UTorrent

28-11-2019 20:33  

Отключить всю рекламу на сайте

20-02-2021 10:21 Капитан Скачать торрент  

Топик был перенесен из форума Фильмы [HD 720p, 1080p] (Хороший звук DUB, MVO) в форум Классика зарубежного кино


bober100piratbit.org



    Дорогой пользователь! Огромная просьба, поблагодарите релизера, оцените раздачу и оставьте свои комментарий, если Вы скачали Капитан через торрент бесплатно! Внесите свою лепту в развитие PiratBit!
    Комментировать посты могут только пользователи прошедшие не сложную регистрацию
    Показать сообщения:    

    Капитан через торрент
    Скачать бесплатно Капитан
    Капитан скачать торрент
    Капитан смотреть онлайн
    Cкачать фильм Капитан бесплатно
    Капитан скачать торрент в хорошем качестве
    Капитан смотреть онлайн бесплатно в хорошем качестве


    Вы не можете начинать темы
    Вы не можете отвечать на сообщения
    Вы не можете редактировать свои сообщения
    Вы не можете удалять свои сообщения
    Вы не можете голосовать в опросах
    Вы не можете прикреплять файлы к сообщениям
    Вы можете скачивать файлы