2 сезон

iTunes

WEBRip

1

2 сезон

iTunes

1 сезон

1 сезон

RePack

30

Ultimate

ВАЖНО

ИГРА 18+

pack

RePack

MK11
pack

Легкие деньги

RePack

jed

RePack

fifa19

RePack

RDR2

RePack

NEED FOR SPEED™ PAYBACK

4 сезон

9 сезон

Бесстыжие 9 сезон

Все сериалы

все сериалы на PB.wtf

RePack

FAR CRY 5

Anonymous, доброй ночи, мы не успеваем собрать деньги на оплату серверов за февраль, помогите нам пожалуйста в это трудное время. В качестве благодарности мы отключим Вам всю рекламу на сайте (укажите свой ник в строку Ваше имя)!

×
  
Magnet ссылка

Обратная связь (Алексей Нужный) [2020, Комедия, WEB-DL 1080p] piratbit.org

Обратная связь через торрент piratbit.org

Раздают: 31 [ 748 KB/s ] Качают: 1 [ 0 KB/s ]
Размер: 3.29 GB | Добавлен: 12 д. назад | Торрент скачан:309 раз
Скачать  

20-02-2021 12:59 Обратная связь Скачать торрент  

Обратная связь
Год выпуска: 2020
Страна: Россия
Выпущено: АМЕДИА, Марс Медиа Энтертейнмент, Стрела
Жанр: Комедия
Продолжительность: 01:36:34
Перевод: Не требуется | iTunes
Субтитры: отсутствуют

Режиссер: Алексей Нужный

rating

В ролях: Леонид Барац, Ирина Горбачёва, Ростислав Хаит, Мария Миронова, Камиль Ларин, Анастасия Уколова, Александр Демидов

Описание: 31 декабря семеро друзей вновь собираются в загородном доме, чтобы вместе встретить Новый год, но предновогодний вечер полон сюрпризов... И все это в интерьерах дома с камином, который стоит в заснеженном коттеджном поселке, а фоном звучат мелодии из культовых советских новогодних комедий и мультфильмов. Главная тема фильма – «Правда о себе со стороны другого человека».

Качество: WEB-DL 1080p
Формат: MKV

Видео: MPEG-4 AVC, 4559 Kb/s, 1920x806, 24 кадр/с
Аудио#1: 48 kHz, AC3 Dolby Digital, 2/0 (L, R) ch, ~192 Kbps | iTunes
Аудио#2: 48 kHz, Advanced Audio Codec, 2/0 (L, R) ch, ~121 Kbps | iTunes
скриншот  скриншот  скриншот  скриншот  

Complete name : Obratnaya.svyaz.2020.WEB-DL.1080p.ELEKTRI4KA.UNIONGANG.mkv
Format : Matroska
Format version : Version 4 / Version 2
File size : 3.29 GiB
Duration : 1 h 36 min
Overall bit rate : 4 874 kb/s
Movie name : Obratnaya.svyaz.2020.WEB-DL.1080p.ELEKTRI4KA.UNIONGANG.
Encoded date : UTC 2021-02-16 14:24:17
Writing application : mkvmerge v8.3.0 ('Over the Horizon') 64bit
Writing library : libebml v1.3.1 + libmatroska v1.4.2

Video
ID : 1
Format : AVC
Format/Info : Advanced Video Codec
Format profile : High@L4
Format settings, CABAC : Yes
Format settings, Reference frames : 5 frames
Codec ID : V_MPEG4/ISO/AVC
Duration : 1 h 36 min
Bit rate : 4 559 kb/s
Width : 1 920 pixels
Height : 806 pixels
Display aspect ratio : 2.40:1
Frame rate mode : Constant
Frame rate : 24.000 FPS
Color space : YUV
Chroma subsampling : 4:2:0
Bit depth : 8 bits
Scan type : Progressive
Bits/(Pixel*Frame) : 0.123
Stream size : 3.08 GiB (94%)
Language : English
Default : Yes
Forced : No
Color range : Limited
Color primaries : BT.709
Transfer characteristics : BT.709
Matrix coefficients : BT.709

Audio #1
ID : 2
Format : AC-3
Format/Info : Audio Coding 3
Mode extension : CM (complete main)
Format settings, Endianness : Big
Codec ID : A_AC3
Duration : 1 h 36 min
Bit rate mode : Constant
Bit rate : 192 kb/s
Channel(s) : 2 channels
Channel positions : Front: L R
Sampling rate : 48.0 kHz
Frame rate : 31.250 FPS (1536 spf)
Bit depth : 16 bits
Compression mode : Lossy
Stream size : 133 MiB (4%)
Title : Original AC3 (iTunes)
Language : Russian
Default : Yes
Forced : Yes

Audio #2
ID : 3
Format : AAC
Format/Info : Advanced Audio Codec
Format profile : LC
Codec ID : A_AAC
Duration : 1 h 36 min
Bit rate : 121 kb/s
Channel(s) : 2 channels
Channel positions : Front: L R
Sampling rate : 48.0 kHz
Frame rate : 46.875 FPS (1024 spf)
Compression mode : Lossy
Stream size : 83.5 MiB (2%)
Title : Original AAC (iTunes)
Language : Russian
Default : No
Forced : No

Menu
00:00:00.000 : en:Глава 1
00:08:19.208 : en:Глава 2
00:17:03.374 : en:Глава 3
00:26:06.415 : en:Глава 4
00:34:41.998 : en:Глава 5
00:43:27.248 : en:Глава 6
00:52:26.498 : en:Глава 7
01:00:34.331 : en:Глава 8
01:08:51.622 : en:Глава 9
01:16:59.663 : en:Глава 10
01:25:28.163 : en:Глава 11

piratbit.org



Скачать Обратная связь через торрент https://d.radikal.ru/d18/2102/17/be2796f5ca3e.png Скачать фильм Обратная связь через торрент бесплантно в хорошем качестве Описание: 31 декабря семеро друзей вновь собираются в загородном доме, чтобы вместе встретить Новый год, но предновогодний вечер полон ... 8.9 10 8
Info! Золотая раздача, скачанное не засчитывается.
Торрент: Зарегистрирован [2021-02-20 12:59] · скачан: 309 раз
Статус: √ проверено
Размер: 3.29 GB
Как cкачать? Как скачать Обратная связь через торрент | UTorrent

% Раздел Тема Автор DL S | L
Наши фильмы (HD, WEB-DL 720p, 1080p) [ 4.49 GB ] Обратная связь [2020 WEBRip 1080p] DEVI Скачать
84 | 1
Наши новые фильмы 2020 - 2021 [ 1.46 GB ] Обратная связь [2020 WEB-DLRip-AVC] bober100 Скачать
23 | 0
Наши новые фильмы 2020 - 2021 [ 1.46 GB ] Обратная связь [2020 WEB-DLRip] bober100 Скачать
17 | 0
Фильмы 2019-2020 [DVDrip, WEB-DLRip, HDrip] (DUB, MVO) [ 746 MB ] Обратная связь / Feedback [2019 HDRip] bober100 Скачать
2 | 0
Фильмы (Blu-ray, BD-Remux, HDDVD) [ 13.74 GB ] Обратная связь / Feedback [2019 BD Remux 1080p] bober100 Скачать
1 | 0
Фильмы [HD 720p, 1080p] (Хороший звук DUB, MVO) [ 7.18 GB ] Обратная связь / Feedback [2019 BDRip 1080p] bober100 Скачать
1 | 0
Фильмы [HD 720p, 1080p] (Хороший звук DUB, MVO) [ 3.41 GB ] Обратная связь / Feedback [2019 BDRip 720p] bober100 Скачать
1 | 0

28-11-2019 20:33  

Отключить всю рекламу на сайте

    Дорогой пользователь! Огромная просьба, поблагодарите релизера, оцените раздачу и оставьте свои комментарий, если Вы скачали Обратная связь через торрент бесплатно! Внесите свою лепту в развитие PiratBit!
    Комментировать посты могут только пользователи прошедшие не сложную регистрацию
    Показать сообщения:    

    Обратная связь через торрент
    Скачать бесплатно Обратная связь
    Обратная связь скачать торрент
    Обратная связь смотреть онлайн
    Cкачать фильм Обратная связь бесплатно
    Обратная связь скачать торрент в хорошем качестве
    Обратная связь смотреть онлайн бесплатно в хорошем качестве


    Вы не можете начинать темы
    Вы не можете отвечать на сообщения
    Вы не можете редактировать свои сообщения
    Вы не можете удалять свои сообщения
    Вы не можете голосовать в опросах
    Вы не можете прикреплять файлы к сообщениям
    Вы можете скачивать файлы