2 сезон

iTunes

WEBRip

1

2 сезон

iTunes

1 сезон

1 сезон

RePack

30

Ultimate

ВАЖНО

ИГРА 18+

pack

RePack

MK11
pack

Легкие деньги

RePack

jed

RePack

fifa19

RePack

RDR2

RePack

NEED FOR SPEED™ PAYBACK

4 сезон

9 сезон

Бесстыжие 9 сезон

Все сериалы

все сериалы на PB.wtf

RePack

FAR CRY 5

Anonymous, добрый вечер, мы не успеваем собрать деньги на оплату серверов за февраль, помогите нам пожалуйста в это трудное время. В качестве благодарности мы отключим Вам всю рекламу на сайте (укажите свой ник в строку Ваше имя)!

×
  
Magnet ссылка

Земля кочевников / Nomadland (Хлоя Чжао) [2020, Драма, WEB-DLRip-AVC] [VO] [Feofanio] от MediaBit piratbit.org

Земля кочевников через торрент piratbit.org

Раздают: 3 [ 0 KB/s ]
Размер: 1.9 GB | Добавлен: 12 д. назад | Торрент скачан:66 раз
Скачать  

20-02-2021 15:38 Земля кочевников Скачать торрент  


Земля кочевников / Nomadland
Информация о фильме:
Название: Земля кочевников
Оригинальное название: Nomadland
Год выхода: 2020
Жанр: Драма
Режиссер: Хлоя Чжао

В ролях: Фрэнсис МакДорманд, Дэвид Стрэтэйрн, Гэй ДеФорест, Патриша Грайр, Линда Мэй, Анджела Рэйс, Карл Р. Хьюз, Дуглас Дж. Соул, Райан Аквино, Тереза Бьюкэнэн, Кариэ Линн Макдермотт Уайлдер, Брэнди Уилбер, Макензи Этчеверри, Аннетт Уэбб, Боб Уэллс

Описание: 60-летняя женщина Ферн остается без работы и без дома, когда во время экономического кризиса закрывается единственная фабрика в её небольшом городке. Единственный выход - погрузить свой небогатый скарб в фургон и стать одной из племени современных кочевников, путешествующих от штата к штату в поисках сезонного заработка.



Страна: США, Германия
Студия: Cor Cordium Productions, Hear/Say Productions, Highwayman Films
Продолжительность: 01:47:37
Перевод: Любительский (одноголосый, закадровый) - Feofanio



Информация о файле:
Кодек: AVC
Формат: MKV
Качество: WEB-DLRip-AVC
Видео: MPEG-4 AVC, 1024x428, 23.976 fps, 2085 kbps
Аудио RU: AC3, 2 ch, 48 kHz, 192 kbps
Аудио EN: AC3, 6 ch, 48 kHz, 256 kbps
Субтитры: Русские (Full [Focs]), английские
Навигация по главам: Да

x264 info: frame I:939 Avg QP:10.79 size: 70413
x264 info: frame P:34183 Avg QP:13.48 size: 25706
x264 info: frame B:119710 Avg QP:16.13 size: 6115
x264 info: consecutive B-frames: 1.5% 2.2% 6.5% 19.5% 50.4% 13.7% 2.5% 0.7% 1.1% 0.9% 1.3%
********************************
General
Unique ID : 254341298860647612930642943991226584405 (0xBF585A34119B2C1CB43119E366504D55)
Complete name : D:uTorrentРипы_от_wolf1245_MediaBitNomadland.2020.VO.Feofanio.WEB-DLRip-AVC_wolf1245_MediaBit.mkv
Format : Matroska
Format version : Version 4
File size : 1.90 GiB
Duration : 1 h 47 min
Overall bit rate : 2 527 kb/s
Movie name : Nomadland.2020.VO.Feofanio.WEB-DLRip-AVC_wolf1245_MediaBit
Encoded date : UTC 2021-02-20 15:22:04
Writing application : mkvmerge v53.0.0 ('Fool's Gold') 64-bit
Writing library : libebml v1.4.1 + libmatroska v1.6.2
Video
ID : 1
Format : AVC
Format/Info : Advanced Video Codec
Format profile : High@L4.1
Format settings : CABAC / 12 Ref Frames
Format settings, CABAC : Yes
Format settings, Reference frames : 12 frames
Codec ID : V_MPEG4/ISO/AVC
Duration : 1 h 47 min
Bit rate : 2 085 kb/s
Width : 1 024 pixels
Height : 428 pixels
Display aspect ratio : 2.40:1
Frame rate mode : Constant
Frame rate : 23.976 (24000/1001) FPS
Color space : YUV
Chroma subsampling : 4:2:0
Bit depth : 8 bits
Scan type : Progressive
Bits/(Pixel*Frame) : 0.198
Stream size : 1.56 GiB (82%)
Title : _wolf1245_MediaBit
Writing library : x264 core 157 r2958 57baac4
Encoding settings : cabac=1 / ref=12 / deblock=1:-3:-3 / analyse=0x3:0x133 / me=umh / subme=10 / psy=1 / psy_rd=1.05:0.03 / mixed_ref=1 / me_range=48 / chroma_me=1 / trellis=2 / 8x8dct=1 / cqm=0 / deadzone=21,11 / fast_pskip=1 / chroma_qp_offset=-3 / threads=10 / lookahead_threads=2 / sliced_threads=0 / nr=0 / decimate=1 / interlaced=0 / bluray_compat=0 / constrained_intra=0 / bframes=10 / b_pyramid=2 / b_adapt=2 / b_bias=0 / direct=3 / weightb=1 / open_gop=0 / weightp=2 / keyint=240 / keyint_min=24 / scenecut=40 / intra_refresh=0 / rc_lookahead=60 / rc=2pass / mbtree=1 / bitrate=2085 / ratetol=1.0 / qcomp=0.60 / qpmin=0 / qpmax=69 / qpstep=4 / cplxblur=20.0 / qblur=0.5 / vbv_maxrate=50000 / vbv_bufsize=62500 / nal_hrd=none / filler=0 / ip_ratio=1.40 / aq=3:0.70
Language : English
Default : Yes
Forced : No
Audio #1
ID : 2
Format : AC-3
Format/Info : Audio Coding 3
Commercial name : Dolby Digital
Codec ID : A_AC3
Duration : 1 h 47 min
Bit rate mode : Constant
Bit rate : 192 kb/s
Channel(s) : 2 channels
Channel layout : L R
Sampling rate : 48.0 kHz
Frame rate : 31.250 FPS (1536 SPF)
Compression mode : Lossy
Stream size : 148 MiB (8%)
Title : VO | Feofanio
Language : Russian
Service kind : Complete Main
Default : Yes
Forced : No
Audio #2
ID : 3
Format : AC-3
Format/Info : Audio Coding 3
Commercial name : Dolby Digital
Codec ID : A_AC3
Duration : 1 h 47 min
Bit rate mode : Constant
Bit rate : 256 kb/s
Channel(s) : 6 channels
Channel layout : L R C LFE Ls Rs
Sampling rate : 48.0 kHz
Frame rate : 31.250 FPS (1536 SPF)
Compression mode : Lossy
Stream size : 197 MiB (10%)
Title : Original
Language : English
Service kind : Complete Main
Default : No
Forced : No
Text #1
ID : 4
Format : UTF-8
Codec ID : S_TEXT/UTF8
Codec ID/Info : UTF-8 Plain Text
Duration : 1 h 42 min
Bit rate : 75 b/s
Count of elements : 1085
Stream size : 57.1 KiB (0%)
Title : Focs
Language : Russian
Default : No
Forced : No
Text #2
ID : 5
Format : UTF-8
Codec ID : S_TEXT/UTF8
Codec ID/Info : UTF-8 Plain Text
Duration : 1 h 46 min
Bit rate : 58 b/s
Count of elements : 1595
Stream size : 45.6 KiB (0%)
Title : English
Language : English
Default : No
Forced : No
Menu
00:00:00.000 : :Chapter 01
00:11:19.708 : :Chapter 02
00:28:49.791 : :Chapter 03
00:40:43.750 : :Chapter 04
00:50:00.375 : :Chapter 05
01:00:22.250 : :Chapter 06
01:11:30.166 : :Chapter 07
01:21:29.583 : :Chapter 08
01:30:30.916 : :Chapter 09
01:37:54.791 : :Chapter 10
Релиз от: &

Автор релиза:
piratbit.org



Скачать Земля кочевников через торрент https://i114.fastpic.ru/big/2021/0220/bc/2150d8a8021b8bd3531db837ed964dbc.png Скачать фильм Земля кочевников через торрент бесплантно в хорошем качестве Описание: 60-летняя женщина Ферн остается без работы и без дома, когда во время экономического кризиса закрывается единственная фабрика в ... 10 10 5
Торрент: Зарегистрирован [2021-02-20 15:38] · скачан: 66 раз
Статус: T временная
Размер: 1.9 GB
Как cкачать? Как скачать Земля кочевников через торрент | UTorrent

28-11-2019 20:33  

Отключить всю рекламу на сайте

    Дорогой пользователь! Огромная просьба, поблагодарите релизера, оцените раздачу и оставьте свои комментарий, если Вы скачали Земля кочевников через торрент бесплатно! Внесите свою лепту в развитие PiratBit!
    Комментировать посты могут только пользователи прошедшие не сложную регистрацию
    Показать сообщения:    

    Земля кочевников через торрент
    Скачать бесплатно Земля кочевников
    Земля кочевников скачать торрент
    Земля кочевников смотреть онлайн
    Cкачать фильм Земля кочевников бесплатно
    Земля кочевников скачать торрент в хорошем качестве
    Земля кочевников смотреть онлайн бесплатно в хорошем качестве


    Вы не можете начинать темы
    Вы не можете отвечать на сообщения
    Вы не можете редактировать свои сообщения
    Вы не можете удалять свои сообщения
    Вы не можете голосовать в опросах
    Вы не можете прикреплять файлы к сообщениям
    Вы можете скачивать файлы