2 сезон

iTunes

WEBRip

1

2 сезон

iTunes

1 сезон

1 сезон

RePack

30

Ultimate

ВАЖНО

ИГРА 18+

pack

RePack

MK11
pack

Легкие деньги

RePack

jed

RePack

fifa19

RePack

RDR2

RePack

NEED FOR SPEED™ PAYBACK

4 сезон

9 сезон

Бесстыжие 9 сезон

Все сериалы

все сериалы на PB.wtf

RePack

FAR CRY 5

Anonymous, добрый вечер, мы не успеваем собрать деньги на оплату серверов за февраль, помогите нам пожалуйста в это трудное время. В качестве благодарности мы отключим Вам всю рекламу на сайте (укажите свой ник в строку Ваше имя)!

×
  
Magnet ссылка

Формула любви (Марк Захаров) [1984 г., мелодрама, комедия, BDRip 720p / 60 FPS, Не требуется Русский] от R.G. HD-Films piratbit.org

Формула любви через торрент piratbit.org

Раздают: 8 [ 0 KB/s ]
Размер: 3.17 GB | Добавлен: 15 д. назад | Торрент скачан:38 раз
Скачать  

20-02-2021 16:02 Формула любви Скачать торрент  

Формула любви
Год выпуска: 1984
Страна: СССР
Жанр: мелодрама, комедия
Продолжительность: 01:30:11
Перевод: Не требуется Русский

Режиссер: Марк Захаров

Премьера в мире: 30 декабря 1984

rating

В ролях: Нодар Мгалоблишвили, Александр Абдулов, Семен Фарада, Елена Валюшкина, Александр Михайлов, Александра Захарова, Елена Аминова, Татьяна Пельтцер, Леонид Броневой, Николай Скоробогатов

Описание: Музыкальная комедия по мотивам повести Алексея Толстого «Граф Калиостро». В 1780 году Джузеппе Калиостро прибыл в Россию для представления высшей знати. Умыкнув под предлогом лечения отца юную Марью Ивановну, граф пытается влюбить в себя девицу, но безуспешно. В провинциальном поместье, где волею случая оказались путешественники, живет юноша, влюбленный в мраморную статую. С помощью Калиостро он надеется оживить мрамор, но встреча с живой Машей все меняет...

Качество: BDRip 720p / 60 FPS
Формат: MKV
Видео кодек: H.264
Аудио кодек: AC3
Видео: x264, 980 x 720 ( 4:3 ), 4646 kbps, 60,000 fps, ( 0.110 bpp)
Аудио#1: Russian: 48 kHz, AC3, 5.1 ch, 16 bits, 384 kbps
Релиз от: Автор рипа: slaventi-69
Общее
Уникальный идентификатор : 223726524294350106745228203076454633617 (0xA8502947A0F05956945E8DD90AFED091)
Полное имя : E:\Formula.ljubvi.(1984).BDRip.720p.(60 Fps).mkv
Формат : Matroska
Версия формата : Version 4
Размер файла : 3,17 Гбайт
Продолжительность : 1 ч. 30 м.
Общий поток : 5033 Кбит/сек
Название фильма : Формула любви (1984) BDRip 720p (60 Fps)
Дата кодирования : UTC 2021-01-29 11:46:33
Программа кодирования : mkvmerge v52.0.0 ('Secret For The Mad') 64-bit
Библиотека кодирования : libebml v1.4.1 + libmatroska v1.6.2

Видео
Идентификатор : 1
Формат : AVC
Формат/Информация : Advanced Video Codec
Профиль формата : High@L4.1
Настройки формата : CABAC / 9 Ref Frames
Параметр CABAC формата : Да
Параметр RefFrames формата : 9 кадров
Идентификатор кодека : V_MPEG4/ISO/AVC
Продолжительность : 1 ч. 30 м.
Битрейт : 4646 Кбит/сек
Ширина : 980 пикселей
Высота : 720 пикселей
Соотношение сторон : 4:3
Режим частоты кадров : Постоянный
Частота кадров : 60,000 кадров/сек
Цветовое пространство : YUV
Субдискретизация насыщенности : 4:2:0
Битовая глубина : 8 бит
Тип развёртки : Прогрессивная
Бит/(Пиксели*Кадры) : 0.110
Размер потока : 2,93 Гбайт (92%)
Заголовок : slaventi-69 ( R.G. HD-Films | 60 fps )
Библиотека кодирования : x264 core 157 r2958 57baac4
Настройки программы : cabac=1 / ref=9 / deblock=1:-1:-1 / analyse=0x3:0x133 / me=umh / subme=9 / psy=1 / psy_rd=1.00:0.00 / mixed_ref=1 / me_range=32 / chroma_me=1 / trellis=2 / 8x8dct=1 / cqm=0 / deadzone=21,11 / fast_pskip=0 / chroma_qp_offset=-2 / threads=10 / lookahead_threads=4 / sliced_threads=0 / nr=0 / decimate=1 / interlaced=0 / bluray_compat=0 / constrained_intra=0 / bframes=5 / b_pyramid=2 / b_adapt=2 / b_bias=0 / direct=2 / weightb=1 / open_gop=0 / weightp=2 / keyint=600 / keyint_min=60 / scenecut=40 / intra_refresh=0 / rc=crf / mbtree=0 / crf=15.7 / qcomp=0.60 / qpmin=0 / qpmax=69 / qpstep=4 / ip_ratio=1.40 / pb_ratio=1.30 / aq=1:1.00
Язык : Russian
Default : Да
Forced : Нет

Аудио
Идентификатор : 2
Формат : AC-3
Формат/Информация : Audio Coding 3
Коммерческое название : Dolby Digital
Идентификатор кодека : A_AC3
Продолжительность : 1 ч. 30 м.
Вид битрейта : Постоянный
Битрейт : 384 Кбит/сек
Каналы : 6 каналов
Channel layout : L R C LFE Ls Rs
Частота : 48,0 КГц
Частота кадров : 31,250 кадров/сек (1536 SPF)
Битовая глубина : 16 бит
Метод сжатия : С потерями
Размер потока : 248 Мбайт (8%)
Язык : Russian
ServiceKind/String : Complete Main
Default : Да
Forced : Нет

Меню
00:00:00.000 : :00:00:00.000
00:10:05.480 : :00:10:05.480
00:16:10.928 : :00:16:10.928
00:24:00.105 : :00:24:00.105
00:29:34.690 : :00:29:34.690
00:37:08.893 : :00:37:08.893
00:45:41.572 : :00:45:41.572
00:51:38.637 : :00:51:38.637
01:01:43.700 : :01:01:43.700
01:07:29.963 : :01:07:29.963
01:13:55.431 : :01:13:55.431
01:21:28.675 : :01:21:28.675

Просьба к переливающим на другие сайты, в оформлении указывайте пожалуйста авторство группы R.G. HD-Films piratbit.org



Скачать Формула любви через торрент http://i31.fastpic.ru/big/2011/1127/9a/520781848cda01fde344c7d9a151ff9a.png Скачать фильм Формула любви через торрент бесплантно в хорошем качестве Описание: Музыкальная комедия по мотивам повести Алексея Толстого «Граф Калиостро». В 1780 году Джузеппе Калиостро прибыл в Россию для ... 10 10 4
Info! Золотая раздача, скачанное не засчитывается.
Торрент: Зарегистрирован [2021-02-20 16:02] · скачан: 38 раз
Статус: √ проверено
Размер: 3.17 GB
Как cкачать? Как скачать Формула любви через торрент | UTorrent

28-11-2019 20:33  

Отключить всю рекламу на сайте

21-02-2021 12:50 Формула любви Скачать торрент  

Раздача стала золотой благодаря:
maikl1.2(5000),

Спасибо за Золото. Смотрите в удовольствие.piratbit.org



22-02-2021 06:32 Формула любви Скачать торрент  

slaventi-69, Спасибо за продолжение рашен-шедэвров! Жду продолжения!piratbit.org



26-02-2021 10:09 Формула любви Скачать торрент  

Это не 60 кадров,жаль...
Как и "Девчата"в прочем.piratbit.org



26-02-2021 17:16 Формула любви Скачать торрент  

Andronii1 писал(а):

Это не 60 кадров,жаль...
Как и "Девчата"в прочем.

С чего сделаны такие выводы? Медиа Инфо не то показывает или есть другие предположения.piratbit.org



27-02-2021 06:05 Формула любви Скачать торрент  

ChangeFPS ...и никакого мошенства...и "Медиаинфо"вам покажет хоть 300 кадров,а в реале будут всё те же - 25.
На "60 фпс орг",есть "Девчата"в реальных 60.piratbit.org



27-02-2021 16:54 Формула любви Скачать торрент  

Andronii1 писал(а):

ChangeFPS ...и никакого мошенства...и "Медиаинфо"вам покажет хоть 300 кадров,а в реале будут всё те же - 25.
На "60 фпс орг",есть "Девчата"в реальных 60.

Надоело что то пояснять, но реклама другого сайта ( где можно скачать за деньги - это хорошо ), ничего не имею против других людей делающих хорошие Ripы, но зачем тогда здесь качать в лучшем случае за спасибо и высказывать свое недовольство. Но первым делом непонимания некоторых вещей, каждый кодирует по своему, Вы хоть почитайте сами то о чем пишете ( ChangeFPS, а почему не AssumeFPS ?). В общем разговор - ни о чем. Почитайте : https://pb.wtf/topic/154538/ (всю тему внимательно, потом рассказываете что не так)
https://www.avisynth.org.ru/docs/russian/corefilters/fps.htmpiratbit.org



    Дорогой пользователь! Огромная просьба, поблагодарите релизера, оцените раздачу и оставьте свои комментарий, если Вы скачали Формула любви через торрент бесплатно! Внесите свою лепту в развитие PiratBit!
    Комментировать посты могут только пользователи прошедшие не сложную регистрацию
    Показать сообщения:    

    Формула любви через торрент
    Скачать бесплатно Формула любви
    Формула любви скачать торрент
    Формула любви смотреть онлайн
    Cкачать фильм Формула любви бесплатно
    Формула любви скачать торрент в хорошем качестве
    Формула любви смотреть онлайн бесплатно в хорошем качестве


    Вы не можете начинать темы
    Вы не можете отвечать на сообщения
    Вы не можете редактировать свои сообщения
    Вы не можете удалять свои сообщения
    Вы не можете голосовать в опросах
    Вы не можете прикреплять файлы к сообщениям
    Вы можете скачивать файлы