2 сезон

iTunes

WEBRip

1

2 сезон

iTunes

1 сезон

1 сезон

RePack

30

Ultimate

ВАЖНО

ИГРА 18+

pack

RePack

MK11
pack

Легкие деньги

RePack

jed

RePack

fifa19

RePack

RDR2

RePack

NEED FOR SPEED™ PAYBACK

4 сезон

9 сезон

Бесстыжие 9 сезон

Все сериалы

все сериалы на PB.wtf

RePack

FAR CRY 5

Anonymous, доброе утро, мы не успеваем собрать деньги на оплату серверов за февраль, помогите нам пожалуйста в это трудное время. В качестве благодарности мы отключим Вам всю рекламу на сайте (укажите свой ник в строку Ваше имя)!

×
  
Magnet ссылка

Денежный самолёт / Money Plane (Эндрю Лоуренс) [2020 г., боевик, HDRip, Профессиональный многоголосый закадровый "iTunes"] piratbit.org

Денежный самолёт через торрент piratbit.org

Раздают: 5 [ 0 KB/s ]
Размер: 717 MB | Добавлен: 13 д. назад | Торрент скачан:53 раза
Скачать  

20-02-2021 18:27 Денежный самолёт Скачать торрент  

Денежный самолёт / Money Plane
Год выпуска: 2020
Страна: США / Dawn's Light, Taylor & Dodge
Жанр: боевик
Продолжительность: 01:22:01
Перевод: Профессиональный многоголосый закадровый (iTunes)
«Ограбление воздушного казино»

Режиссер: Эндрю Лоуренс

rating

В ролях: Адам Коуплэнд, Келси Грэммер, Томас Джейн, Дениз Ричардс, Катрина Норма, Патрик Ламонт мл., Эндрю Лоуренс, Джозеф Лоуренс, Мэттью Лоуренс, Ал Сапиенца

Описание: Профессиональный вор, имеющий многомиллионные долги, в обмен на жизнь своей семьи должен совершить дерзкое ограбление – ограбить воздушное казино, оборудованное на борту большого лайнера, где собираются самые опасные мировые преступники.

Качество: HDRip
Формат: AVI
Видео кодек: DivX
Аудио кодек: MP3
Видео: 640x360 (1.78:1), 23.976 fps, XviD build 50 ~1085 kbps avg, 0.20 bit/pixel
Аудио: 48 kHz, MPEG Layer 3, 2 ch, ~128.00 kbps avg




Общее
Полное имя : G:\ФИЛЬМЫ\Денежный самолёт.2020.HDRip.avi
Формат : AVI
Формат/Информация : Audio Video Interleave
Размер файла : 717 Мбайт
Продолжительность : 1 ч. 22 м.
Общий поток : 1 223 Кбит/сек
Программа кодирования : VirtualDubMod 1.5.10.3 | www.virtualdub-fr.org || (build 2550/release)
Библиотека кодирования : VirtualDubMod build 2550/release

Видео
Идентификатор : 0
Формат : MPEG-4 Visual
Профиль формата : Advanced Simple@L5
Настройки формата : BVOP2
Параметр BVOP формата : 2
Параметр QPel формата : Нет
Параметр GMC формата : Без точки перехода
Параметр матрицы формата : Default (MPEG)
Идентификатор кодека : XVID
Идентификатор кодека/Подсказка : XviD
Продолжительность : 1 ч. 22 м.
Битрейт : 1 086 Кбит/сек
Ширина : 640 пикселей
Высота : 360 пикселей
Соотношение сторон : 16:9
Частота кадров : 23,976 (24000/1001) кадра/сек
Цветовое пространство : YUV
Субдискретизация насыщенности : 4:2:0
Битовая глубина : 8 бит
Тип развёртки : Прогрессивная
Метод сжатия : С потерями
Бит/(Пиксели*Кадры) : 0.197
Размер потока : 637 Мбайт (89%)
Библиотека кодирования : XviD 1.2.1 (UTC 2008-12-04)

Аудио
Идентификатор : 1
Формат : MPEG Audio
Версия формата : Version 1
Профиль формата : Layer 3
Настройки формата : Joint stereo
Идентификатор кодека : 55
Идентификатор кодека/Подсказка : MP3
Продолжительность : 1 ч. 22 м.
Вид битрейта : Постоянный
Битрейт : 128 Кбит/сек
Каналы : 2 канала
Частота : 48,0 КГц
Частота кадров : 41,667 кадра/сек (1152 SPF)
Метод сжатия : С потерями
Размер потока : 75,1 Мбайт (10%)
Выравнивание : Соединение по промежуткам
Продолжительность промежутка : 42 мс. (1,00 видеокадр)
Время предзагрузки промежутка : 504 мс.
Библиотека кодирования : LAME3.99r
Настройки программы : -m j -V 4 -q 2 -lowpass 17 -b 128

piratbit.org



Скачать Денежный самолёт через торрент https://pic1.kartinco.top/new/img/2021-02/20/6s9t8vis58mjnxq1zgrsfmlju.jpg Скачать фильм Денежный самолёт через торрент бесплантно в хорошем качестве Описание: Профессиональный вор, имеющий многомиллионные долги, в обмен на жизнь своей семьи должен совершить дерзкое ограбление – ограбить ... 5 10 1
Торрент: Зарегистрирован [2021-02-20 18:27] · скачан: 53 раз
Статус: √ проверено
Размер: 717 MB
Как cкачать? Как скачать Денежный самолёт через торрент | UTorrent

% Раздел Тема Автор DL S | L
Фильмы [HD 720p, 1080p] (Хороший звук DUB, MVO) [ 8.37 GB ] Денежный самолёт / Money Plane [2020 BDRip 1080p] MVO bober100 Скачать
7 | 0
Фильмы [HD 720p, 1080p] (Хороший звук DUB, MVO) [ 3.49 GB ] Денежный самолёт / Money Plane [2020 BDRip 720p] 2xMVO bober100 Скачать
8 | 0
Фильмы 2019-2020 [DVDrip, WEB-DLRip, HDrip] (DUB, MVO) [ 1.46 GB ] Денежный самолёт / Money Plane [2020 HDRip] 2xMVO bober100 Скачать
9 | 0
Фильмы 2019-2020 [DVDrip, WEB-DLRip, HDrip] (DUB, MVO) [ 2.05 GB ] Денежный самолёт / Money Plane [2020 HDRip-AVC] [MVO] от MediaBit Lithuania Скачать
6 | 0

28-11-2019 20:33  

Отключить всю рекламу на сайте

21-02-2021 13:52 Денежный самолёт Скачать торрент  

почему не проверена раздача граждане ” модераторы“???piratbit.org



22-02-2021 07:22 Денежный самолёт Скачать торрент  

на первом скрине Шекель Кривоносый?piratbit.org



22-02-2021 08:21 Денежный самолёт Скачать торрент  

Раздающему-спасибо,а фильм редкостное угpiratbit.org



    Дорогой пользователь! Огромная просьба, поблагодарите релизера, оцените раздачу и оставьте свои комментарий, если Вы скачали Денежный самолёт через торрент бесплатно! Внесите свою лепту в развитие PiratBit!
    Комментировать посты могут только пользователи прошедшие не сложную регистрацию
    Показать сообщения:    

    Денежный самолёт через торрент
    Скачать бесплатно Денежный самолёт
    Денежный самолёт скачать торрент
    Денежный самолёт смотреть онлайн
    Cкачать фильм Денежный самолёт бесплатно
    Денежный самолёт скачать торрент в хорошем качестве
    Денежный самолёт смотреть онлайн бесплатно в хорошем качестве


    Вы не можете начинать темы
    Вы не можете отвечать на сообщения
    Вы не можете редактировать свои сообщения
    Вы не можете удалять свои сообщения
    Вы не можете голосовать в опросах
    Вы не можете прикреплять файлы к сообщениям
    Вы можете скачивать файлы