2 сезон

iTunes

WEBRip

1

2 сезон

iTunes

1 сезон

1 сезон

RePack

30

Ultimate

ВАЖНО

ИГРА 18+

pack

RePack

MK11
pack

Легкие деньги

RePack

jed

RePack

fifa19

RePack

RDR2

RePack

NEED FOR SPEED™ PAYBACK

4 сезон

9 сезон

Бесстыжие 9 сезон

Все сериалы

все сериалы на PB.wtf

RePack

FAR CRY 5

Anonymous, доброе утро, мы не успеваем собрать деньги на оплату серверов за февраль, помогите нам пожалуйста в это трудное время. В качестве благодарности мы отключим Вам всю рекламу на сайте (укажите свой ник в строку Ваше имя)!

×
  
Magnet ссылка

Маленькие волшебницы / Sprite Sisters - Vier zauberhafte Schwestern (Свен Унтервальдт) [2020, Фэнтези, комедия, приключения, семейный, WEB-DLRip-AVC] [DUB] [iTunes] от MediaBit piratbit.org

Маленькие волшебницы через торрент piratbit.org

Раздают: 2 [ 0 KB/s ]
Размер: 1.45 GB | Добавлен: 12 д. назад | Торрент скачан:60 раз
Скачать  

21-02-2021 08:14 Маленькие волшебницы Скачать торрент  


Маленькие волшебницы / Sprite Sisters - Vier zauberhafte Schwestern
Информация о фильме:
Название: Маленькие волшебницы
Оригинальное название: Sprite Sisters - Vier zauberhafte Schwestern
Год выхода: 2020
Жанр: Фэнтези, комедия, приключения, семейный
Режиссер: Свен Унтервальдт мл.

В ролях: Лайла Падоцке, Хедда Эрлебах, Лилит Джули Джона, Леонора фон Берг, Катя Риман, Юстус фон Донаньи, Анна Тальбах, Грегор Блоэб, Дорис Шретцмайер, Юль Зергер

Описание: Четыре сестры Флейм, Флора, Марина и Скай живут с родителями в живописном фамильном замке. На первый взгляд это самые обычные девочки-школьницы, они ходят в кружки и секции, отлично поют, мечтают прославиться и готовятся к участию в музыкальном шоу для молодых талантов. Окружающие и не подозревают о том, что героини обладают особым даром, унаследованным от предков, который тщательно скрывают. Три старшие сестры уже овладели умением повелевать стихиями огня, воды и земли. В свой девятый день рождения у младшей из сестёр тоже появляется волшебный талант - управлять воздухом. Теперь сестрам предстоит спуститься в подвал замка, где спрятана Роза ветров, чтобы разгадать ее тайну. Тем временем злая волшебница Гленда стремится захватить Влacть над миром и тоже ищет волшебную Розу. Смогут ли маленькие волшебницы спасти мир от злой колдуньи и защитить свой дом?



Страна: Германия
Студия: Blue Eyes Fiction, Buena Vista International Film Production (Germany), Dor Film Produktionsgesellschaft GmbH
Продолжительность: 01:36:41
Перевод: Дублированный - iTunes



Информация о файле:
Кодек: AVC
Формат: MKV
Качество: WEB-DLRip-AVC
Видео: MPEG-4 AVC, 1024x428, 24.000 fps, 1764 kbps
Аудио RU: AC3, 6 ch, 48 kHz, 384 kbps
Субтитры: Нет
Навигация по главам: Да

General
Unique ID : 104181117218906511080627608354473491157 (0x4E608DA6FAD9DDE868CDDA0F6D15BAD5)
Complete name : D:uTorrentРипы_от_wolf1245_MediaBitVier zauberhafte Schwestern.2020.DUB.iTunes.WEB-DLRip-AVC_wolf1245_MediaBit.mkv
Format : Matroska
Format version : Version 4
File size : 1.45 GiB
Duration : 1 h 36 min
Overall bit rate : 2 150 kb/s
Movie name : Vier zauberhafte Schwestern.2020.DUB.iTunes.WEB-DLRip-AVC_wolf1245_MediaBit
Encoded date : UTC 2021-02-21 07:55:34
Writing application : mkvmerge v53.0.0 ('Fool's Gold') 64-bit
Writing library : libebml v1.4.1 + libmatroska v1.6.2
Video
ID : 1
Format : AVC
Format/Info : Advanced Video Codec
Format profile : High@L4.1
Format settings : CABAC / 12 Ref Frames
Format settings, CABAC : Yes
Format settings, Reference frames : 12 frames
Codec ID : V_MPEG4/ISO/AVC
Duration : 1 h 36 min
Bit rate : 1 764 kb/s
Width : 1 024 pixels
Height : 428 pixels
Display aspect ratio : 2.40:1
Frame rate mode : Constant
Frame rate : 24.000 FPS
Color space : YUV
Chroma subsampling : 4:2:0
Bit depth : 8 bits
Scan type : Progressive
Bits/(Pixel*Frame) : 0.168
Stream size : 1.19 GiB (82%)
Title : _wolf1245_MediaBit
Writing library : x264 core 157 r2958 57baac4
Encoding settings : cabac=1 / ref=12 / deblock=1:-3:-3 / analyse=0x3:0x133 / me=umh / subme=10 / psy=1 / psy_rd=1.01:0.03 / mixed_ref=1 / me_range=48 / chroma_me=1 / trellis=2 / 8x8dct=1 / cqm=0 / deadzone=21,11 / fast_pskip=1 / chroma_qp_offset=-3 / threads=10 / lookahead_threads=2 / sliced_threads=0 / nr=0 / decimate=1 / interlaced=0 / bluray_compat=0 / constrained_intra=0 / bframes=10 / b_pyramid=2 / b_adapt=2 / b_bias=0 / direct=3 / weightb=1 / open_gop=0 / weightp=2 / keyint=240 / keyint_min=24 / scenecut=40 / intra_refresh=0 / rc_lookahead=60 / rc=2pass / mbtree=1 / bitrate=1764 / ratetol=1.0 / qcomp=0.60 / qpmin=0 / qpmax=69 / qpstep=4 / cplxblur=20.0 / qblur=0.5 / vbv_maxrate=50000 / vbv_bufsize=62500 / nal_hrd=none / filler=0 / ip_ratio=1.40 / aq=1:0.80
Language : English
Default : Yes
Forced : No
Color range : Limited
Color primaries : BT.709
Transfer characteristics : BT.709
Matrix coefficients : BT.709
Audio
ID : 2
Format : AC-3
Format/Info : Audio Coding 3
Commercial name : Dolby Digital
Codec ID : A_AC3
Duration : 1 h 36 min
Bit rate mode : Constant
Bit rate : 384 kb/s
Channel(s) : 6 channels
Channel layout : L R C LFE Ls Rs
Sampling rate : 48.0 kHz
Frame rate : 31.250 FPS (1536 SPF)
Compression mode : Lossy
Stream size : 266 MiB (18%)
Title : DUB | iTunes
Language : Russian
Service kind : Complete Main
Default : Yes
Forced : No
Menu
00:00:00.000 : :Глава 1
00:08:15.416 : :Глава 2
00:16:24.207 : :Глава 3
00:24:43.832 : :Глава 4
00:32:50.123 : :Глава 5
00:41:20.414 : :Глава 6
00:49:31.997 : :Глава 7
00:57:43.538 : :Глава 8
01:06:01.413 : :Глава 9
01:14:43.079 : :Глава 10
01:22:57.620 : :Глава 11
Релиз от: &

Автор релиза:
piratbit.org



Скачать Маленькие волшебницы через торрент https://i6.imageban.ru/out/2021/02/21/06e998d7afcb1b42c48cf75a400b8f3f.png Скачать фильм Маленькие волшебницы через торрент бесплантно в хорошем качестве Описание: Четыре сестры Флейм, Флора, Марина и Скай живут с родителями в живописном фамильном замке. На первый взгляд это самые обычные ... 10 10 2
Торрент: Зарегистрирован [2021-02-21 08:14] · скачан: 60 раз
Статус: √ проверено
Размер: 1.45 GB
Как cкачать? Как скачать Маленькие волшебницы через торрент | UTorrent

28-11-2019 20:33  

Отключить всю рекламу на сайте

    Дорогой пользователь! Огромная просьба, поблагодарите релизера, оцените раздачу и оставьте свои комментарий, если Вы скачали Маленькие волшебницы через торрент бесплатно! Внесите свою лепту в развитие PiratBit!
    Комментировать посты могут только пользователи прошедшие не сложную регистрацию
    Показать сообщения:    

    Маленькие волшебницы через торрент
    Скачать бесплатно Маленькие волшебницы
    Маленькие волшебницы скачать торрент
    Маленькие волшебницы смотреть онлайн
    Cкачать фильм Маленькие волшебницы бесплатно
    Маленькие волшебницы скачать торрент в хорошем качестве
    Маленькие волшебницы смотреть онлайн бесплатно в хорошем качестве


    Вы не можете начинать темы
    Вы не можете отвечать на сообщения
    Вы не можете редактировать свои сообщения
    Вы не можете удалять свои сообщения
    Вы не можете голосовать в опросах
    Вы не можете прикреплять файлы к сообщениям
    Вы можете скачивать файлы