2 сезон

iTunes

WEBRip

1

2 сезон

iTunes

1 сезон

1 сезон

RePack

30

Ultimate

ВАЖНО

ИГРА 18+

pack

RePack

MK11
pack

Легкие деньги

RePack

jed

RePack

fifa19

RePack

RDR2

RePack

NEED FOR SPEED™ PAYBACK

4 сезон

9 сезон

Бесстыжие 9 сезон

Все сериалы

все сериалы на PB.wtf

RePack

FAR CRY 5

Anonymous, доброй ночи, мы не успеваем собрать деньги на оплату серверов за февраль, помогите нам пожалуйста в это трудное время. В качестве благодарности мы отключим Вам всю рекламу на сайте (укажите свой ник в строку Ваше имя)!

×
  
Magnet ссылка

Ледяная синева / Ice Blue (Сэнди Сомерс) [2017, Триллер, WEBRip-AVC] [MVO] [IVI] от MediaBit piratbit.org

Ледяная синева через торрент piratbit.org

Раздают: 2 [ 0 KB/s ]
Размер: 1.4 GB | Добавлен: 14 д. назад | Торрент скачан:57 раз
Скачать  

21-02-2021 11:28 Ледяная синева Скачать торрент  


Ледяная синева / Ice Blue
Информация о фильме:
Название: Ледяная синева
Оригинальное название: Ice Blue
Год выхода: 2017
Жанр: Триллер
Режиссер: Сэнди Сомерс

В ролях: Мишель Морган, Билли Маклеллан, Софиа Локлин Херт, Чарли Керр, Микаела Кокрейн, Бернард Старлайт, Доун Ван де Шут, Равонна Доу, Али Фроггатт, Кристиане МакАлир

Описание: Когда давно ушедшая из дома мать Ариэль неожиданно возвращается домой к семье на отдалённую ферму, она вбивает клин в её, казалось бы, идеальные отношения с отцом и помогает осознать девушке её поистине мрачное прошлое.



Страна: Канада
Студия: Iylond Entertainment
Продолжительность: 01:43:51
Перевод: Профессиональный (многоголосый, закадровый) - IVI



Информация о файле:
Кодек: AVC
Формат: MKV
Качество: WEBRip-AVC
Видео: MPEG-4 AVC, 1024x428, 30.000 fps, 1733 kbps
Аудио RU: AC3, 2 ch, 48 kHz, 192 kbps
Субтитры: Нет
Навигация по главам: Нет

x264 info: frame I:1016 Avg QP:10.36 size: 73439
x264 info: frame P:43109 Avg QP:13.34 size: 19822
x264 info: frame B:142834 Avg QP:16.85 size: 2928
x264 info: consecutive B-frames: 2.9% 2.6% 5.2% 23.0% 37.4% 20.9% 3.3% 1.0% 1.4% 2.4%
********************************
General
Unique ID : 286316308308364980577744984862191273932 (0xD76683E26D42DF222C9BB9628AD847CC)
Complete name : D:uTorrentРипы_от_wolf1245_MediaBitIce Blue.2017.MVO.IVI.WEBRip-AVC_wolf1245_MediaBit.mkv
Format : Matroska
Format version : Version 4
File size : 1.40 GiB
Duration : 1 h 43 min
Overall bit rate : 1 924 kb/s
Movie name : Ice Blue.2017.MVO.IVI.WEBRip-AVC_wolf1245_MediaBit
Encoded date : UTC 2021-02-21 11:11:40
Writing application : mkvmerge v53.0.0 ('Fool's Gold') 64-bit
Writing library : libebml v1.4.1 + libmatroska v1.6.2
Video
ID : 1
Format : AVC
Format/Info : Advanced Video Codec
Format profile : High@L4.1
Format settings : CABAC / 12 Ref Frames
Format settings, CABAC : Yes
Format settings, Reference frames : 12 frames
Codec ID : V_MPEG4/ISO/AVC
Duration : 1 h 43 min
Bit rate : 1 733 kb/s
Width : 1 024 pixels
Height : 428 pixels
Display aspect ratio : 2.40:1
Frame rate mode : Constant
Frame rate : 30.000 FPS
Color space : YUV
Chroma subsampling : 4:2:0
Bit depth : 8 bits
Scan type : Progressive
Bits/(Pixel*Frame) : 0.132
Stream size : 1.25 GiB (90%)
Title : _wolf1245_MediaBit
Writing library : x264 core 157 r2958 57baac4
Encoding settings : cabac=1 / ref=12 / deblock=1:-3:-3 / analyse=0x3:0x133 / me=umh / subme=10 / psy=1 / psy_rd=1.05:0.03 / mixed_ref=1 / me_range=32 / chroma_me=1 / trellis=2 / 8x8dct=1 / cqm=0 / deadzone=21,11 / fast_pskip=1 / chroma_qp_offset=-3 / threads=10 / lookahead_threads=1 / sliced_threads=0 / nr=0 / decimate=1 / interlaced=0 / bluray_compat=0 / constrained_intra=0 / bframes=9 / b_pyramid=2 / b_adapt=2 / b_bias=0 / direct=3 / weightb=1 / open_gop=0 / weightp=2 / keyint=300 / keyint_min=30 / scenecut=40 / intra_refresh=0 / rc_lookahead=60 / rc=2pass / mbtree=1 / bitrate=1733 / ratetol=1.0 / qcomp=0.60 / qpmin=0 / qpmax=69 / qpstep=4 / cplxblur=20.0 / qblur=0.5 / vbv_maxrate=50000 / vbv_bufsize=62500 / nal_hrd=none / filler=0 / ip_ratio=1.40 / aq=1:0.80
Language : English
Default : Yes
Forced : No
Audio
ID : 2
Format : AC-3
Format/Info : Audio Coding 3
Commercial name : Dolby Digital
Codec ID : A_AC3
Duration : 1 h 43 min
Bit rate mode : Constant
Bit rate : 192 kb/s
Channel(s) : 2 channels
Channel layout : L R
Sampling rate : 48.0 kHz
Frame rate : 31.250 FPS (1536 SPF)
Compression mode : Lossy
Stream size : 143 MiB (10%)
Title : MVO | (IVI)
Language : Russian
Service kind : Complete Main
Default : Yes
Forced : No
Релиз от: &

Автор релиза:
piratbit.org



Скачать Ледяная синева через торрент https://i114.fastpic.ru/big/2021/0221/0e/a9cc29263d45b47325aba09cae457e0e.png Скачать фильм Ледяная синева через торрент бесплантно в хорошем качестве Описание: Когда давно ушедшая из дома мать Ариэль неожиданно возвращается домой к семье на отдалённую ферму, она вбивает клин в её, ... 10 10 4
Торрент: Зарегистрирован [2021-02-21 11:28] · скачан: 57 раз
Статус: √ проверено
Размер: 1.4 GB
Как cкачать? Как скачать Ледяная синева через торрент | UTorrent

28-11-2019 20:33  

Отключить всю рекламу на сайте

    Дорогой пользователь! Огромная просьба, поблагодарите релизера, оцените раздачу и оставьте свои комментарий, если Вы скачали Ледяная синева через торрент бесплатно! Внесите свою лепту в развитие PiratBit!
    Комментировать посты могут только пользователи прошедшие не сложную регистрацию
    Показать сообщения:    

    Ледяная синева через торрент
    Скачать бесплатно Ледяная синева
    Ледяная синева скачать торрент
    Ледяная синева смотреть онлайн
    Cкачать фильм Ледяная синева бесплатно
    Ледяная синева скачать торрент в хорошем качестве
    Ледяная синева смотреть онлайн бесплатно в хорошем качестве


    Вы не можете начинать темы
    Вы не можете отвечать на сообщения
    Вы не можете редактировать свои сообщения
    Вы не можете удалять свои сообщения
    Вы не можете голосовать в опросах
    Вы не можете прикреплять файлы к сообщениям
    Вы можете скачивать файлы