2 сезон

iTunes

WEBRip

1

2 сезон

iTunes

1 сезон

1 сезон

RePack

30

Новинка

ВАЖНО

ИГРА 18+

pack

RePack

MK11
pack

Легкие деньги

RePack

jed

RePack

fifa19

RePack

RDR2

RePack

NEED FOR SPEED™ PAYBACK

4 сезон

9 сезон

Бесстыжие 9 сезон

Все сериалы

все сериалы на PB.wtf

RePack

FAR CRY 5

Anonymous, добрый вечер, мы не успеваем собрать деньги на оплату серверов за февраль, помогите нам пожалуйста в это трудное время. В качестве благодарности мы отключим Вам всю рекламу на сайте (укажите свой ник в строку Ваше имя)!

×
  
Magnet ссылка

Счастливо оставаться / Adieu les cons (Альбер Дюпонтель) [2020, Драма, комедия, WEB-DL 1080p] [DUB] [iTunes] piratbit.org

Счастливо оставаться через торрент piratbit.org

Раздают: 15 [ 305 KB/s ]
Размер: 2.99 GB | Добавлен: 14 д. назад | Торрент скачан:118 раз
Скачать  

21-02-2021 19:25 Счастливо оставаться Скачать торрент  

Счастливо оставаться / Adieu les cons Год выхода: 2020
Жанр: Драма, комедия
Выпущено: Франция / Manchester Films
Продолжительность: 01:27:08
Озвучивание: Дублированное | iTunes

Режиссер: Альбер Дюпонтель

В ролях: Виржини Эфира, Альбер Дюпонтель, Николя Марье, Жакки Берруайе, Филипп Юшан, Бастьен Угетто, Марилу Оссийу, Мишель Вюйермоз, Лоран Стокер, Киан Кожанди

О фильме: Сюзи узнает, что смертельно больна. Времени осталось мало, и теперь наконец можно сделать то, что она давно хотела. Вместе с Джей Би, находящимся в состоянии полного выгорания и отсутствия интереса к жизни, и мистером Блином, наоборот, ослепленным энтузиазмом, они отправятся в длинное и увлекательное путешествие. Их ждет незабываемый и захватывающий квест, который будет невозможно забыть.

rating

Качество: WEB-DL 1080p
Формат: MKV
Видео: MPEG-4 AVC, 4521 Kb/s, 1920x806
Аудио: Russian: 48 kHz, AC3 Dolby Digital, 3/2 (L, C, R, l, r) + LFE ch, ~384 Kbps
Субтитры: Нет
Дополнительно: Сохранены оригинальные чаптеры.

Релиз группы: &
Complete name : Schastlivo.ostavatsya.2020.WEB-DL.1080p.ELEKTRI4KA.UNIONGANG.mkv

Format : Matroska

Format version : Version 4 / Version 2

File size : 2.99 GiB

Duration : 1 h 27 min

Overall bit rate : 4 907 kb/s

Movie name : Schastlivo.ostavatsya.2020.WEB-DL.1080p.ELEKTRI4KA.UNIONGANG.

Encoded date : UTC 2021-02-21 15:08:17

Writing application : mkvmerge v8.3.0 ('Over the Horizon') 64bit

Writing library : libebml v1.3.1 + libmatroska v1.4.2

Video

ID : 1

Format : AVC

Format/Info : Advanced Video Codec

Format profile : High@L4

Format settings, CABAC : Yes

Format settings, Reference frames : 5 frames

Codec ID : V_MPEG4/ISO/AVC

Duration : 1 h 27 min

Bit rate : 4 521 kb/s

Width : 1 920 pixels

Height : 806 pixels

Display aspect ratio : 2.40:1

Frame rate mode : Constant

Frame rate : 24.000 FPS

Color space : YUV

Chroma subsampling : 4:2:0

Bit depth : 8 bits

Scan type : Progressive

Bits/(Pixel*Frame) : 0.122

Stream size : 2.75 GiB (92%)

Language : English

Default : Yes

Forced : No

Color range : Limited

Color primaries : BT.709

Transfer characteristics : BT.709

Matrix coefficients : BT.709

Audio

ID : 2

Format : AC-3

Format/Info : Audio Coding 3

Mode extension : CM (complete main)

Format settings, Endianness : Big

Codec ID : A_AC3

Duration : 1 h 27 min

Bit rate mode : Constant

Bit rate : 384 kb/s

Channel(s) : 6 channels

Channel positions : Front: L C R, Side: L R, LFE

Sampling rate : 48.0 kHz

Frame rate : 31.250 FPS (1536 spf)

Bit depth : 16 bits

Compression mode : Lossy

Stream size : 239 MiB (8%)

Title : DUB (iTunes)

Language : Russian

Default : Yes

Forced : No

Menu

00:00:00.000 : en:Глава 1

00:08:34.958 : en:Глава 2

00:16:36.041 : en:Глава 3

00:25:14.124 : en:Глава 4

00:33:51.374 : en:Глава 5

00:42:17.999 : en:Глава 6

00:50:30.957 : en:Глава 7

00:59:24.915 : en:Глава 8

01:07:37.290 : en:Глава 9

01:15:44.915 : en:Глава 10
скриншот  скриншот  скриншот  
piratbit.org



Скачать Счастливо оставаться через торрент https://i3.imageban.ru/out/2021/02/21/470830e5f9ebeedf46e6addba036b2ce.png Скачать фильм Счастливо оставаться через торрент бесплантно в хорошем качестве О фильме: Сюзи узнает, что смертельно больна. Времени осталось мало, и теперь наконец можно сделать то, что она давно хотела. Вместе с ... 10 10 2
Торрент: Зарегистрирован [2021-02-21 19:25] · скачан: 118 раз
Статус: √ проверено
Размер: 2.99 GB
Как cкачать? Как скачать Счастливо оставаться через торрент | UTorrent

% Раздел Тема Автор DL S | L
Фильмы 2019-2020 [DVDrip, WEB-DLRip, HDrip] (DUB, MVO) [ 1.45 GB ] Счастливо оставаться / Adieu les cons [2020 WEB-DLRip-AVC] от MediaBit Lithuania Скачать
13 | 0
Фильмы 2019-2020 [DVDrip, WEB-DLRip, HDrip] (DUB, MVO) [ 1.37 GB ] Счастливо оставаться / Adieu les cons [2020 WEB-DLRip] killermax2013 Скачать
10 | 0

28-11-2019 20:33  

Отключить всю рекламу на сайте


    Дорогой пользователь! Огромная просьба, поблагодарите релизера, оцените раздачу и оставьте свои комментарий, если Вы скачали Счастливо оставаться через торрент бесплатно! Внесите свою лепту в развитие PiratBit!
    Комментировать посты могут только пользователи прошедшие не сложную регистрацию
    Показать сообщения:    

    Счастливо оставаться через торрент
    Скачать бесплатно Счастливо оставаться
    Счастливо оставаться скачать торрент
    Счастливо оставаться смотреть онлайн
    Cкачать фильм Счастливо оставаться бесплатно
    Счастливо оставаться скачать торрент в хорошем качестве
    Счастливо оставаться смотреть онлайн бесплатно в хорошем качестве


    Вы не можете начинать темы
    Вы не можете отвечать на сообщения
    Вы не можете редактировать свои сообщения
    Вы не можете удалять свои сообщения
    Вы не можете голосовать в опросах
    Вы не можете прикреплять файлы к сообщениям
    Вы можете скачивать файлы