2 сезон

iTunes

WEBRip

1

2 сезон

iTunes

1 сезон

1 сезон

RePack

30

Новинка

ВАЖНО

ИГРА 18+

pack

RePack

MK11
pack

Легкие деньги

RePack

jed

RePack

fifa19

RePack

RDR2

RePack

NEED FOR SPEED™ PAYBACK

4 сезон

9 сезон

Бесстыжие 9 сезон

Все сериалы

все сериалы на PB.wtf

RePack

FAR CRY 5

Anonymous, добрый день, мы не успеваем собрать деньги на оплату серверов за февраль, помогите нам пожалуйста в это трудное время. В качестве благодарности мы отключим Вам всю рекламу на сайте (укажите свой ник в строку Ваше имя)!

×
  
Magnet ссылка

Птица в клетке. Заражение / Songbird (Адам Мэйсон) [2020, Триллер, драма, мелодрама, WEB-DL 1080p] [DUB] [iTunes] piratbit.org

Птица в клетке. Заражение через торрент piratbit.org

Раздают: 18 [ 171 KB/s ]
Размер: 6.03 GB | Добавлен: 14 д. назад | Торрент скачан:168 раз
Скачать  

21-02-2021 21:08 Птица в клетке. Заражение Скачать торрент  

Птица в клетке. Заражение / Songbird Информация о фильме

Год выхода: 2020
Жанр: Триллер, драма, мелодрама
Выпущено: США / STX Films, Invisible Narratives, Platinum Dunes
Продолжительность: 01:24:50
Озвучивание: Дублированное | iTunes

Режиссер: Адам Мэйсон

В ролях: Кей Джей Апа, София Карсон, Крэйг Робинсон, Брэдли Уитфорд, Петер Стормаре, Эльпидия Каррильо, Александра Даддарио, Лия МакХью, Пол Уолтер Хаузер, Деми Мур

О фильме: В 2024 году мир все еще находится во власти опасного вируса. Зараженных силой забирают из домов и отправляют в зловещие карантинные лагеря.У курьера Нико редкий иммунитет к болезни, и он свободно передвигается по городу. Когда его девушка Сара заражается, Нико понимает, что за ней уже выехали военные и у него есть считанные часы, чтобы спасти возлюбленную.

rating

Качество: WEB-DL 1080p | AMAZON Version
Формат: MKV
Видео: MPEG-4 AVC, 9150 Kb/s, 1920x800
Аудио #1: Russian: 48 kHz, AC3 Dolby Digital, 3/2 (L, C, R, l, r) + LFE ch, ~384 Kbps | DUB | iTunes
Аудио #2: English: 48 kHz, Enhanced AC3 Dolby Digital, 3/2 (L, C, R, l, r) + LFE ch, ~640 Kbps | Original
Субтитры: Russian (Forced), Ukrainian (Full), English (SDH)
Дополнительно: Сохранены оригинальные чаптеры.

Релиз группы &
Complete name : Ptitsa.v.kletke.Zarazhenie.2020.AMZN.WEB-DL.1080p.ELEKTRI4KA.UNIONGANG.mkv

Format : Matroska

Format version : Version 4 / Version 2

File size : 6.03 GiB

Duration : 1 h 24 min

Overall bit rate : 10.2 Mb/s

Movie name : Ptitsa.v.kletke. Zarazhenie.2020.AMZN.WEB-DL.1080p.ELEKTRI4KA.UNIONGANG.

Encoded date : UTC 2021-02-21 17:56:33

Writing application : mkvmerge v8.3.0 ('Over the Horizon') 64bit

Writing library : libebml v1.3.1 + libmatroska v1.4.2

Video

ID : 1

Format : AVC

Format/Info : Advanced Video Codec

Format profile : High@L4

Format settings, CABAC : Yes

Format settings, Reference frames : 4 frames

Codec ID : V_MPEG4/ISO/AVC

Duration : 1 h 24 min

Bit rate mode : Constant

Bit rate : 9 150 kb/s

Nominal bit rate : 10 000 kb/s

Width : 1 920 pixels

Height : 800 pixels

Display aspect ratio : 2.40:1

Frame rate mode : Constant

Frame rate : 23.976 (24000/1001) FPS

Color space : YUV

Chroma subsampling : 4:2:0

Bit depth : 8 bits

Scan type : Progressive

Bits/(Pixel*Frame) : 0.248

Stream size : 5.42 GiB (90%)

Default : Yes

Forced : No

Color range : Limited

Color primaries : BT.709

Transfer characteristics : BT.709

Matrix coefficients : BT.709

Audio #1

ID : 2

Format : AC-3

Format/Info : Audio Coding 3

Mode extension : CM (complete main)

Format settings, Endianness : Big

Codec ID : A_AC3

Duration : 1 h 24 min

Bit rate mode : Constant

Bit rate : 384 kb/s

Channel(s) : 6 channels

Channel positions : Front: L C R, Side: L R, LFE

Sampling rate : 48.0 kHz

Frame rate : 31.250 FPS (1536 spf)

Bit depth : 16 bits

Compression mode : Lossy

Stream size : 233 MiB (4%)

Title : DUB (iTunes)

Language : Russian

Default : Yes

Forced : Yes

Audio #2

ID : 3

Format : E-AC-3

Format/Info : Enhanced Audio Coding 3

Format settings, Endianness : Big

Codec ID : A_EAC3

Duration : 1 h 24 min

Bit rate mode : Constant

Bit rate : 640 kb/s

Channel(s) : 6 channels

Channel positions : Front: L C R, Side: L R, LFE

Sampling rate : 48.0 kHz

Frame rate : 187.500 FPS (256 spf)

Compression mode : Lossy

Stream size : 388 MiB (6%)

Title : Original

Language : English

Default : No

Forced : No

Text #1

ID : 4

Format : UTF-8

Codec ID : S_TEXT/UTF8

Codec ID/Info : UTF-8 Plain Text

Duration : 1 h 18 min

Bit rate : 5 b/s

Count of elements : 57

Stream size : 3.20 KiB (0%)

Title : Forced

Language : Russian

Default : Yes

Forced : No

Text #2

ID : 5

Format : UTF-8

Codec ID : S_TEXT/UTF8

Codec ID/Info : UTF-8 Plain Text

Duration : 1 h 21 min

Bit rate : 94 b/s

Count of elements : 1022

Stream size : 56.4 KiB (0%)

Title : Full

Language : Ukrainian

Default : No

Forced : No

Text #3

ID : 6

Format : UTF-8

Codec ID : S_TEXT/UTF8

Codec ID/Info : UTF-8 Plain Text

Duration : 1 h 24 min

Bit rate : 64 b/s

Count of elements : 1254

Stream size : 40.0 KiB (0%)

Title : English (SDH)

Language : English

Default : No

Forced : No

Menu

00:00:00.000 : en:Studio Logo

00:00:47.000 : en:Scene 2

00:02:15.000 : en:Opening Credits

00:02:24.000 : en:Title Sequence

00:02:28.000 : en:Opening Credits

00:03:18.000 : en:Scene 6

00:07:41.000 : en:Scene 7

00:11:14.000 : en:Scene 8

00:15:14.000 : en:Scene 9

00:18:32.000 : en:Scene 10

00:19:13.000 : en:Scene 11

00:23:26.000 : en:Scene 12

00:27:24.000 : en:Scene 13

00:29:19.000 : en:Scene 14

00:33:55.000 : en:Scene 15

00:35:59.000 : en:Scene 16

00:38:41.000 : en:Scene 17

00:43:18.000 : en:Scene 18

00:49:10.000 : en:Scene 19

00:50:49.000 : en:Scene 20

00:54:56.000 : en:Scene 21

00:57:23.000 : en:Scene 22

01:06:13.000 : en:Scene 23

01:13:32.000 : en:Scene 24

01:18:56.000 : en:Scene 25

01:21:32.000 : en:End Credits
piratbit.org



Скачать Птица в клетке. Заражение через торрент https://i6.imageban.ru/out/2021/02/21/7149d470f71acd400f1f4ed6c76b681a.png Скачать фильм Птица в клетке. Заражение через торрент бесплантно в хорошем качестве О фильме: В 2024 году мир все еще находится во власти опасного вируса. Зараженных силой забирают из домов и отправляют в зловещие ... 9.6 10 8
Торрент: Зарегистрирован [2021-02-21 21:08] · скачан: 168 раз
Статус: √ проверено
Размер: 6.03 GB
Как cкачать? Как скачать Птица в клетке. Заражение через торрент | UTorrent

% Раздел Тема Автор DL S | L
Фильмы 2019-2020 [DVDrip, WEB-DLRip, HDrip] (DUB, MVO) [ 1.46 GB ] Птица в клетке. Заражение / Songbird [2020 HDRip] DUB bober100 Скачать
22 | 1
Фильмы [HD 720p, 1080p] (Хороший звук DUB, MVO) [ 4.3 GB ] Птица в клетке. Заражение / Songbird [2020 BDRip 720p] bober100 Скачать
4 | 1
Фильмы [HD 720p, 1080p] (Хороший звук DUB, MVO) [ 10.84 GB ] Птица в клетке. Заражение / Songbird [2020 BDRip 1080p] bober100 Скачать
11 | 0
Фильмы 2019-2020 [DVDrip, WEB-DLRip, HDrip] (DUB, MVO) [ 2.05 GB ] Птица в клетке. Заражение / Songbird [2020 WEB-DLRip-AVC] от MediaBit Lithuania Скачать
31 | 0

28-11-2019 20:33  

Отключить всю рекламу на сайте

21-02-2021 21:43 Птица в клетке. Заражение Скачать торрент  

Фильм так себеpiratbit.org



22-02-2021 03:28 Птица в клетке. Заражение Скачать торрент  

согласенpiratbit.org



23-02-2021 08:43 Птица в клетке. Заражение Скачать торрент  

фильм на один раз. Можно посмотреть, не затянут. События развиваются быстро.piratbit.org



    Дорогой пользователь! Огромная просьба, поблагодарите релизера, оцените раздачу и оставьте свои комментарий, если Вы скачали Птица в клетке. Заражение через торрент бесплатно! Внесите свою лепту в развитие PiratBit!
    Комментировать посты могут только пользователи прошедшие не сложную регистрацию
    Показать сообщения:    

    Птица в клетке. Заражение через торрент
    Скачать бесплатно Птица в клетке. Заражение
    Птица в клетке. Заражение скачать торрент
    Птица в клетке. Заражение смотреть онлайн
    Cкачать фильм Птица в клетке. Заражение бесплатно
    Птица в клетке. Заражение скачать торрент в хорошем качестве
    Птица в клетке. Заражение смотреть онлайн бесплатно в хорошем качестве


    Вы не можете начинать темы
    Вы не можете отвечать на сообщения
    Вы не можете редактировать свои сообщения
    Вы не можете удалять свои сообщения
    Вы не можете голосовать в опросах
    Вы не можете прикреплять файлы к сообщениям
    Вы можете скачивать файлы