2 сезон

iTunes

WEBRip

1

2 сезон

iTunes

1 сезон

1 сезон

RePack

30

Новинка

ВАЖНО

ИГРА 18+

pack

RePack

MK11
pack

Легкие деньги

RePack

jed

RePack

fifa19

RePack

RDR2

RePack

NEED FOR SPEED™ PAYBACK

4 сезон

9 сезон

Бесстыжие 9 сезон

Все сериалы

все сериалы на PB.wtf

RePack

FAR CRY 5

Anonymous, добрый день, мы не успеваем собрать деньги на оплату серверов за февраль, помогите нам пожалуйста в это трудное время. В качестве благодарности мы отключим Вам всю рекламу на сайте (укажите свой ник в строку Ваше имя)!

×
  
Magnet ссылка

Машина Траха / RAW Fuck Machine (Jake Jaxson) [2019 г., Anal , Bareback, Big Dick, Blowjob, Oral, Rimming, Young Men, Twinks, WEB-DLRip, Оригинальный] piratbit.org

Машина Траха через торрент piratbit.org

Размер: 3.38 GB | Добавлен: 14 д. назад | Торрент скачан:27 раз
Скачать  

22-02-2021 06:20 Машина Траха Скачать торрент  

Машина Траха / RAW Fuck Machine
Год выпуска: 2019
Страна: USA
Жанр: Anal , Bareback, Big Dick, Blowjob, Oral, Rimming, Young Men, Twinks
Продолжительность: 01:38:31
Перевод: Оригинальный

Режиссер: Jake Jaxson

В ролях: Chris Loan, Max Adonis, Cade Maddox, Ty Mitchell, Sean Ford, Carter Dane, Taylor Reign, Justin Matthews

Описание: Hardcore RAW SEX! We’re serving just that in this volume. We’ve paired up some hard hitters like Cade Maddox & Justin Matthews with boys that just want to get fucked! These guys are dicked down raw and were asking for more!
Тип HD видео: 720p
Качество: WEB-DL
Формат: MP4
Видео кодек: H.264
Аудио кодек: AAC
Видео: H.264/AVC 1280x720 30fps 4830 kbit/s
Аудио#1: AAC 48000Hz 2.0 chn 128 kbit/s
Общее
Полное имя : D:\торенты\zagrujehhie\CockyBoys - RAW Fuck Machine.mp4
Формат : MPEG-4
Профиль формата : Base Media
Идентификатор кодека : isom (isom/iso2/avc1/mp41)
Размер файла : 3,38 Гбайт
Продолжительность : 1 ч. 38 м.
Общий поток : 4 911 Кбит/сек
Дата пометки : UTC 2019-07-10 20:19:16
Программа кодирования : Lavf58.17.100

Видео
Идентификатор : 1
Формат : AVC
Формат/Информация : Advanced Video Codec
Профиль формата : Baseline@L6.2
Настройки формата : 2 Ref Frames
Параметр CABAC формата : Нет
Параметр RefFrames формата : 2 кадра
Идентификатор кодека : avc1
Идентификатор кодека/Информация : Advanced Video Coding
Продолжительность : 1 ч. 38 м.
Битрейт : 4 830 Кбит/сек
Ширина : 1 280 пикселей
Высота : 720 пикселей
Соотношение сторон : 16:9
Режим частоты кадров : Постоянный
Частота кадров : 30,000 кадров/сек
Цветовое пространство : YUV
Субдискретизация насыщенности : 4:2:0
Битовая глубина : 8 бит
Тип развёртки : Прогрессивная
Бит/(Пиксели*Кадры) : 0.175
Размер потока : 3,29 Гбайт (97%)
Библиотека кодирования : x264 core 155 r2901
Настройки программы : cabac=0 / ref=2 / deblock=1:-1:-1 / analyse=0x1:0x131 / me=hex / subme=7 / psy=1 / psy_rd=0.40:0.15 / mixed_ref=0 / me_range=16 / chroma_me=1 / trellis=1 / 8x8dct=0 / cqm=0 / deadzone=6,6 / fast_pskip=1 / chroma_qp_offset=-3 / threads=18 / lookahead_threads=3 / sliced_threads=0 / nr=0 / decimate=0 / interlaced=0 / bluray_compat=0 / constrained_intra=0 / bframes=0 / weightp=0 / keyint=300 / keyint_min=30 / scenecut=40 / intra_refresh=0 / rc_lookahead=40 / rc=abr / mbtree=1 / bitrate=4830 / ratetol=1.0 / qcomp=0.80 / qpmin=10 / qpmax=69 / qpstep=4 / vbv_maxrate=800000 / vbv_bufsize=26666 / nal_hrd=none / filler=0 / ip_ratio=1.10 / aq=1:0.00
Язык : English
Дата кодирования : UTC 2019-07-10 20:19:16
Дата пометки : UTC 2019-07-10 20:19:16
Codec configuration box : avcC

Аудио
Идентификатор : 2
Формат : AAC LC
Формат/Информация : Advanced Audio Codec Low Complexity
Идентификатор кодека : mp4a-40-2
Продолжительность : 1 ч. 38 м.
Вид битрейта : Постоянный
Битрейт : 128 Кбит/сек
Каналы : 2 канала
Channel layout : L R
Частота : 48,0 КГц
Частота кадров : 46,875 кадров/сек (1024 SPF)
Метод сжатия : С потерями
Размер потока : 90,2 Мбайт (3%)
Язык : English
Default : Да
Alternate group : 1
Дата кодирования : UTC 2019-07-10 20:19:16
Дата пометки : UTC 2019-07-10 20:19:16

piratbit.org



pack Скачать Машина Траха через торрент https://c.radikal.ru/c14/2102/da/9c1b9c29e614.jpg Скачать фильм Машина Траха через торрент бесплантно в хорошем качестве Описание: Hardcore RAW SEX! We’re serving just that in this volume. We’ve paired up some hard hitters like Cade Maddox & Justin Matthews ... 1 10 1
Info! Золотая раздача, скачанное не засчитывается.
Торрент: Зарегистрирован [2021-02-22 06:20] · скачан: 27 раз
Статус: √ проверено
Размер: 3.38 GB
Как cкачать? Как скачать Машина Траха через торрент | UTorrent

28-11-2019 20:33  

Отключить всю рекламу на сайте

    Дорогой пользователь! Огромная просьба, поблагодарите релизера, оцените раздачу и оставьте свои комментарий, если Вы скачали Машина Траха через торрент бесплатно! Внесите свою лепту в развитие PiratBit!
    Комментировать посты могут только пользователи прошедшие не сложную регистрацию
    Показать сообщения:    

    Машина Траха через торрент
    Скачать бесплатно Машина Траха
    Машина Траха скачать торрент
    Машина Траха смотреть онлайн
    Cкачать фильм Машина Траха бесплатно
    Машина Траха скачать торрент в хорошем качестве
    Машина Траха смотреть онлайн бесплатно в хорошем качестве


    Вы не можете начинать темы
    Вы не можете отвечать на сообщения
    Вы не можете редактировать свои сообщения
    Вы не можете удалять свои сообщения
    Вы не можете голосовать в опросах
    Вы не можете прикреплять файлы к сообщениям
    Вы можете скачивать файлы