2 сезон

iTunes

WEBRip

1

2 сезон

iTunes

1 сезон

1 сезон

RePack

30

Новинка

ВАЖНО

ИГРА 18+

pack

RePack

MK11
pack

Легкие деньги

RePack

jed

RePack

fifa19

RePack

RDR2

RePack

NEED FOR SPEED™ PAYBACK

4 сезон

9 сезон

Бесстыжие 9 сезон

Все сериалы

все сериалы на PB.wtf

RePack

FAR CRY 5

Anonymous, доброй ночи, мы не успеваем собрать деньги на оплату серверов за февраль, помогите нам пожалуйста в это трудное время. В качестве благодарности мы отключим Вам всю рекламу на сайте (укажите свой ник в строку Ваше имя)!

×
  
Magnet ссылка

Смерть в раю / Death In Paradise / Сезон: 1-10 / Серии: 1-80 из 80 (Пол Харрисон, Роджер Голдби, Чарльз Палмер) [2011-2021, триллер, драма, криминал, детектив, WEB-DLRip-AVC] [MVO] (TVShows) piratbit.org

Смерть в раю через торрент piratbit.org

Раздают: 1 [ 69 KB/s ] Качают: 2 [ 0 KB/s ]
Размер: 70 GB | Добавлен: 2 д. 8 ч. назад | Торрент скачан:1 раз
Скачать  

22-02-2021 16:48 Смерть в раю Скачать торрент  

Смерть в раю / Death In Paradise

Год выпуска: 2011-2021
Страна: Великобритания, Франция
Жанр: триллер, драма, криминал, детектив
Продолжительность: ~ 00:50:00 сери
Перевод: Профессиональный (многоголосый закадровый) *TVShows

Режиссёр: Пол Харрисон, Роджер Голдби, Чарльз Палмер, Кейт Боуэк, Ричард Сайни, Дэвид О’Нилл, Олрик

В ролях: Бен Миллер, Сара Мартинс, Гари Карр, Дэнни Джон-Джулс, Элис Хенли, Камилла Бипут, Джини Спарк, Миранда Рэйсон, Станы Коппет, Ли Бордман, Софи Уинклман, Элизабет Буржин, Стефани Бичем, Эстелла Дэниэлс, Том Уорд, Джеймс Космо, Дэвид Аджала, Гари Карр, Дон Уоррингтон, Эдриан Данбар, Йохан Майерс, Нил Стьюк, Мишель Остин, Крис Маршалл, Сара Мартинс, Дон Уорингтон, Жозефин Жобер, Крис Маршалл, Сара Мартинс, Тоби Бакаре, Гари Карр, Бен Миллер, Тоби Бакаре, Ардал О’Хэнлон, Эндрю Тирнан, Дайвин Хенри, Роберт Джеймс-Колльер и др.

Описание: Детективный сериал о инспекторе Лондонского управления полиции, которого отправили вести расследования в одно из самых (по его мнению) ужасных мест на земле — карибский остров Сент-Мари.

rating


Возраст: 16+ (зрителям, достигшим 16 лет)

Качество: WEB-DLRip-AVC
Формат: MKV
Видео: AVC/H.264, 1024x576, 16:9, 25.000 FPS, ~ 1806 kbps
Аудио 1: AC3, 48.0 kHz, 2 ch, 192 kbps - русский
Аудио 2: AC3, 48.0 kHz, 2 ch, 192 kbps - английский
Субтитры: английскиe, русские (6-9 сезон)
Реклама:отсутствует
General
Unique ID : 170986157220838938558193152403322240911 (0x80A2BC6C3F75D96C943A5DB09BC0FF8F)
Complete name : Death.in.Paradise.S01E01.mkv
Format : Matroska
Format version : Version 4
File size : 825 MiB
Duration : 52 min 37 s
Overall bit rate : 2 193 kb/s
Encoded date : UTC 2021-01-10 13:44:46
Writing application : mkvmerge v8.3.0 ('Over the Horizon') 32bit
Writing library : libebml v1.3.1 + libmatroska v1.4.2

Video
ID : 1
Format : AVC
Format/Info : Advanced Video Codec
Format profile : High@L4.1
Format settings : CABAC / 7 Ref Frames
Format settings, CABAC : Yes
Format settings, Reference : 7 frames
Format settings, GOP : M=3, N=13
Codec ID : V_MPEG4/ISO/AVC
Duration : 52 min 37 s
Bit rate : 1 806 kb/s
Width : 1 024 pixels
Height : 576 pixels
Display aspect ratio : 16:9
Frame rate mode : Constant
Frame rate : 25.000 FPS
Color space : YUV
Chroma subsampling : 4:2:0
Bit depth : 8 bits
Scan type : Progressive
Bits/(Pixel*Frame) : 0.122
Stream size : 680 MiB (82%)
Default : Yes
Forced : No

Audio #1
ID : 2
Format : AC-3
Format/Info : Audio Coding 3
Commercial name : Dolby Digital
Codec ID : A_AC3
Duration : 52 min 37 s
Bit rate mode : Constant
Bit rate : 192 kb/s
Channel(s) : 2 channels
Channel layout : L R
Sampling rate : 48.0 kHz
Frame rate : 31.250 FPS (1536 SPF)
Compression mode : Lossy
Stream size : 72.3 MiB (9%)
Title : TVShows
Language : Russian
Service kind : Complete Main
Default : Yes
Forced : No

Audio #2
ID : 3
Format : AC-3
Format/Info : Audio Coding 3
Commercial name : Dolby Digital
Codec ID : A_AC3
Duration : 52 min 37 s
Bit rate mode : Constant
Bit rate : 192 kb/s
Channel(s) : 2 channels
Channel layout : L R
Sampling rate : 48.0 kHz
Frame rate : 31.250 FPS (1536 SPF)
Compression mode : Lossy
Stream size : 72.3 MiB (9%)
Language : English
Service kind : Complete Main
Default : No
Forced : No

Text #1
ID : 4
Format : UTF-8
Codec ID : S_TEXT/UTF8
Codec ID/Info : UTF-8 Plain Text
Duration : 51 min 11 s
Bit rate : 70 b/s
Count of elements : 888
Stream size : 26.5 KiB (0%)
Language : English
Default : No
Forced : No

Text #2
ID : 5
Format : UTF-8
Codec ID : S_TEXT/UTF8
Codec ID/Info : UTF-8 Plain Text
Duration : 51 min 11 s
Bit rate : 76 b/s
Count of elements : 960
Stream size : 28.8 KiB (0%)
Title : SDH
Language : English
Default : No
Forced : No
скриншот  скриншот  скриншот  
piratbit.org



Скачать Смерть в раю через торрент https://d.radikal.ru/d10/2002/ea/dc523b9e29bc.jpg Скачать фильм Смерть в раю через торрент бесплантно в хорошем качестве Описание: Детективный сериал о инспекторе Лондонского управления полиции, которого отправили вести расследования в одно из самых (по его ... 10 10 2
Info! Золотая раздача, скачанное не засчитывается.
Торрент: Зарегистрирован [2021-02-22 16:48] · скачан: 1 раз
Статус: √ проверено
Размер: 70 GB
Как cкачать? Как скачать Смерть в раю через торрент | UTorrent

28-11-2019 20:33  

Отключить всю рекламу на сайте

    Дорогой пользователь! Огромная просьба, поблагодарите релизера, оцените раздачу и оставьте свои комментарий, если Вы скачали Смерть в раю через торрент бесплатно! Внесите свою лепту в развитие PiratBit!
    Комментировать посты могут только пользователи прошедшие не сложную регистрацию
    Показать сообщения:    

    Смерть в раю через торрент
    Скачать бесплатно Смерть в раю
    Смерть в раю скачать торрент
    Смерть в раю смотреть онлайн
    Cкачать фильм Смерть в раю бесплатно
    Смерть в раю скачать торрент в хорошем качестве
    Смерть в раю смотреть онлайн бесплатно в хорошем качестве


    Вы не можете начинать темы
    Вы не можете отвечать на сообщения
    Вы не можете редактировать свои сообщения
    Вы не можете удалять свои сообщения
    Вы не можете голосовать в опросах
    Вы не можете прикреплять файлы к сообщениям
    Вы можете скачивать файлы