2 сезон

iTunes

WEBRip

1

2 сезон

iTunes

1 сезон

1 сезон

RePack

30

Новинка

ВАЖНО

ИГРА 18+

pack

RePack

MK11
pack

Легкие деньги

RePack

jed

RePack

fifa19

RePack

RDR2

RePack

NEED FOR SPEED™ PAYBACK

4 сезон

9 сезон

Бесстыжие 9 сезон

Все сериалы

все сериалы на PB.wtf

RePack

FAR CRY 5

Anonymous, доброй ночи, мы не успеваем собрать деньги на оплату серверов за февраль, помогите нам пожалуйста в это трудное время. В качестве благодарности мы отключим Вам всю рекламу на сайте (укажите свой ник в строку Ваше имя)!

×
  
Magnet ссылка

Птица в клетке. Заражение / Songbird (Адам Мэйсон) [2020, Триллер, драма, мелодрама, WEB-DLRip-AVC] [DUB] [iTunes] от MediaBit piratbit.org

Птица в клетке. Заражение через торрент piratbit.org

Раздают: 21 [ 82 KB/s ]
Размер: 2.05 GB | Добавлен: 10 д. назад | Торрент скачан:255 раз
Скачать  

22-02-2021 20:29 Птица в клетке. Заражение Скачать торрент  


Птица в клетке. Заражение / Songbird
Информация о фильме:
Название: Птица в клетке. Заражение
Оригинальное название: Songbird
Год выхода: 2020
Жанр: Триллер, драма, мелодрама
Режиссер: Адам Мэйсон

В ролях: Кей Джей Апа, София Карсон, Крэйг Робинсон, Брэдли Уитфорд, Петер Стормаре, Эльпидия Каррильо, Александра Даддарио, Лия МакХью, Пол Уолтер Хаузер, Деми Мур

Описание: В 2024 году мир все еще находится во власти опасного вируса. Зараженных силой забирают из домов и отправляют в зловещие карантинные лагеря.У курьера Нико редкий иммунитет к болезни, и он свободно передвигается по городу. Когда его девушка Сара заражается, Нико понимает, что за ней уже выехали военные и у него есть считанные часы, чтобы спасти возлюбленную.



Страна: США
Студия: STX Films, Invisible Narratives, Platinum Dunes
Продолжительность: 01:24:50
Перевод: Дублированное - iTunes



Информация о файле:
Кодек: AVC
Формат: MKV
Качество: WEB-DLRip-AVC
Видео: MPEG-4 AVC, 1024x428, 23.976 fps, 2625 kbps
Аудио RU: AC3, 6 ch, 48 kHz, 384 kbps
Аудио EN: AC3, 6 ch, 48 kHz, 448 kbps
Субтитры: Russian (Forced), Ukrainian (Full), English (SDH)
Навигация по главам: Да

x264 info: frame I:1063 Avg QP:13.74 size: 83986
x264 info: frame P:29411 Avg QP:17.16 size: 25989
x264 info: frame B:91565 Avg QP:19.48 size: 8905
x264 info: consecutive B-frames: 3.2% 4.1% 11.3% 29.0% 15.1% 24.3% 4.9% 4.7% 1.3% 0.7% 0.5% 0.6% 0.3%
********************************
General
Unique ID : 241767526686832187710473044195254409942 (0xB5E2BB5F4894508408B03CD2C36B1AD6)
Complete name : D:uTorrentРипы_от_wolf1245_MediaBitSongbird.2020.DUB.iTunes.WEB-DLRip-AVC_wolf1245_MediaBit.mkv
Format : Matroska
Format version : Version 4
File size : 2.05 GiB
Duration : 1 h 24 min
Overall bit rate : 3 457 kb/s
Movie name : Songbird.2020.DUB.iTunes.WEB-DLRip-AVC_wolf1245_MediaBit
Encoded date : UTC 2021-02-22 20:15:15
Writing application : mkvmerge v53.0.0 ('Fool's Gold') 64-bit
Writing library : libebml v1.4.1 + libmatroska v1.6.2
Video
ID : 1
Format : AVC
Format/Info : Advanced Video Codec
Format profile : High@L4.1
Format settings : CABAC / 12 Ref Frames
Format settings, CABAC : Yes
Format settings, Reference frames : 12 frames
Codec ID : V_MPEG4/ISO/AVC
Duration : 1 h 24 min
Bit rate : 2 625 kb/s
Width : 1 024 pixels
Height : 428 pixels
Display aspect ratio : 2.40:1
Frame rate mode : Constant
Frame rate : 23.976 (24000/1001) FPS
Color space : YUV
Chroma subsampling : 4:2:0
Bit depth : 8 bits
Scan type : Progressive
Bits/(Pixel*Frame) : 0.250
Stream size : 1.55 GiB (76%)
Title : _wolf1245_MediaBit
Writing library : x264 core 157 r2958 57baac4
Encoding settings : cabac=1 / ref=12 / deblock=1:-3:-3 / analyse=0x3:0x133 / me=umh / subme=11 / psy=1 / psy_rd=1.00:0.15 / mixed_ref=1 / me_range=48 / chroma_me=1 / trellis=2 / 8x8dct=1 / cqm=0 / deadzone=21,11 / fast_pskip=1 / chroma_qp_offset=-3 / threads=10 / lookahead_threads=2 / sliced_threads=0 / nr=0 / decimate=1 / interlaced=0 / bluray_compat=0 / constrained_intra=0 / bframes=12 / b_pyramid=2 / b_adapt=2 / b_bias=0 / direct=3 / weightb=1 / open_gop=0 / weightp=2 / keyint=240 / keyint_min=24 / scenecut=40 / intra_refresh=0 / rc_lookahead=60 / rc=2pass / mbtree=1 / bitrate=2625 / ratetol=1.0 / qcomp=0.60 / qpmin=0 / qpmax=69 / qpstep=4 / cplxblur=20.0 / qblur=0.5 / vbv_maxrate=50000 / vbv_bufsize=62500 / nal_hrd=none / filler=0 / ip_ratio=1.40 / aq=2:1.00
Language : English
Default : Yes
Forced : No
Color range : Limited
Color primaries : BT.709
Transfer characteristics : BT.709
Matrix coefficients : BT.709
Audio #1
ID : 2
Format : AC-3
Format/Info : Audio Coding 3
Commercial name : Dolby Digital
Codec ID : A_AC3
Duration : 1 h 24 min
Bit rate mode : Constant
Bit rate : 384 kb/s
Channel(s) : 6 channels
Channel layout : L R C LFE Ls Rs
Sampling rate : 48.0 kHz
Frame rate : 31.250 FPS (1536 SPF)
Compression mode : Lossy
Stream size : 233 MiB (11%)
Title : DUB | (iTunes)
Language : Russian
Service kind : Complete Main
Default : Yes
Forced : No
Audio #2
ID : 3
Format : AC-3
Format/Info : Audio Coding 3
Commercial name : Dolby Digital
Codec ID : A_AC3
Duration : 1 h 24 min
Bit rate mode : Constant
Bit rate : 448 kb/s
Channel(s) : 6 channels
Channel layout : L R C LFE Ls Rs
Sampling rate : 48.0 kHz
Frame rate : 31.250 FPS (1536 SPF)
Compression mode : Lossy
Stream size : 272 MiB (13%)
Title : Original
Language : English
Service kind : Complete Main
Default : No
Forced : No
Text #1
ID : 4
Format : UTF-8
Codec ID : S_TEXT/UTF8
Codec ID/Info : UTF-8 Plain Text
Duration : 1 h 18 min
Bit rate : 5 b/s
Count of elements : 57
Stream size : 3.20 KiB (0%)
Title : Forced
Language : Russian
Default : No
Forced : No
Text #2
ID : 5
Format : UTF-8
Codec ID : S_TEXT/UTF8
Codec ID/Info : UTF-8 Plain Text
Duration : 1 h 21 min
Bit rate : 94 b/s
Count of elements : 1022
Stream size : 56.4 KiB (0%)
Title : Full
Language : Ukrainian
Default : No
Forced : No
Text #3
ID : 6
Format : UTF-8
Codec ID : S_TEXT/UTF8
Codec ID/Info : UTF-8 Plain Text
Duration : 1 h 24 min
Bit rate : 64 b/s
Count of elements : 1254
Stream size : 40.0 KiB (0%)
Title : English (SDH)
Language : English
Default : No
Forced : No
Menu
00:00:00.000 : :Studio Logo
00:00:47.000 : :Scene 2
00:02:15.000 : :Opening Credits
00:02:24.000 : :Title Sequence
00:02:28.000 : :Opening Credits
00:03:18.000 : :Scene 6
00:07:41.000 : :Scene 7
00:11:14.000 : :Scene 8
00:15:14.000 : :Scene 9
00:18:32.000 : :Scene 10
00:19:13.000 : :Scene 11
00:23:26.000 : :Scene 12
00:27:24.000 : :Scene 13
00:29:19.000 : :Scene 14
00:33:55.000 : :Scene 15
00:35:59.000 : :Scene 16
00:38:41.000 : :Scene 17
00:43:18.000 : :Scene 18
00:49:10.000 : :Scene 19
00:50:49.000 : :Scene 20
00:54:56.000 : :Scene 21
00:57:23.000 : :Scene 22
01:06:13.000 : :Scene 23
01:13:32.000 : :Scene 24
01:18:56.000 : :Scene 25
01:21:32.000 : :End Credits
Релиз от: &

Автор релиза:
piratbit.org



Скачать Птица в клетке. Заражение через торрент https://i114.fastpic.ru/big/2021/0222/73/a40c947401d4cc40d525b10dcb5eb773.jpg Скачать фильм Птица в клетке. Заражение через торрент бесплантно в хорошем качестве Описание: В 2024 году мир все еще находится во власти опасного вируса. Зараженных силой забирают из домов и отправляют в зловещие ... 9.7 10 7
Торрент: Зарегистрирован [2021-02-22 20:29] · скачан: 255 раз
Статус: √ проверено
Размер: 2.05 GB
Как cкачать? Как скачать Птица в клетке. Заражение через торрент | UTorrent

28-11-2019 20:33  

Отключить всю рекламу на сайте

28-02-2021 05:29 Птица в клетке. Заражение Скачать торрент  

как фильмецок вам?piratbit.org



    Дорогой пользователь! Огромная просьба, поблагодарите релизера, оцените раздачу и оставьте свои комментарий, если Вы скачали Птица в клетке. Заражение через торрент бесплатно! Внесите свою лепту в развитие PiratBit!
    Комментировать посты могут только пользователи прошедшие не сложную регистрацию
    Показать сообщения:    

    Птица в клетке. Заражение через торрент
    Скачать бесплатно Птица в клетке. Заражение
    Птица в клетке. Заражение скачать торрент
    Птица в клетке. Заражение смотреть онлайн
    Cкачать фильм Птица в клетке. Заражение бесплатно
    Птица в клетке. Заражение скачать торрент в хорошем качестве
    Птица в клетке. Заражение смотреть онлайн бесплатно в хорошем качестве


    Вы не можете начинать темы
    Вы не можете отвечать на сообщения
    Вы не можете редактировать свои сообщения
    Вы не можете удалять свои сообщения
    Вы не можете голосовать в опросах
    Вы не можете прикреплять файлы к сообщениям
    Вы можете скачивать файлы