2 сезон

iTunes

WEBRip

1

2 сезон

iTunes

1 сезон

1 сезон

RePack

30

Новинка

ВАЖНО

ИГРА 18+

pack

RePack

MK11
pack

Легкие деньги

RePack

jed

RePack

fifa19

RePack

RDR2

RePack

NEED FOR SPEED™ PAYBACK

4 сезон

9 сезон

Бесстыжие 9 сезон

Все сериалы

все сериалы на PB.wtf

RePack

FAR CRY 5

Anonymous, добрый вечер, мы не успеваем собрать деньги на оплату серверов за февраль, помогите нам пожалуйста в это трудное время. В качестве благодарности мы отключим Вам всю рекламу на сайте (укажите свой ник в строку Ваше имя)!

×
  
Magnet ссылка

В. Давыдов и Голиаф (Геннадий Байсак) [1985 г., комедия, короткометражный, SATRip-AVC] piratbit.org

В. Давыдов и Голиаф через торрент piratbit.org

Раздают: 1 [ 0 KB/s ]
Размер: 393 MB | Добавлен: 13 д. назад | Торрент скачан:4 раза
Скачать  

22-02-2021 21:39 В. Давыдов и Голиаф Скачать торрент  

В. Давыдов и Голиаф

Год выпуска: 1985
Страна: СССР | ТО ''Экран''
Жанр: комедия, короткометражный
Продолжительность: 00:26:00
Перевод: не требуется

Режиссер: Геннадий Байсак

В ролях: Алексей Петренко, Александр Солдатов, Михаил Бычков, Михаил Бочаров, Вячеслав Горбунчиков, Виктор Уральский, Юрий Чернов, Алексей Зайцев, Лев Лемке

Описание: Комедия о поединке семиклассника Вити Давыдова, с рабочим Голиафом, известным не только своим могучим телосложением, но и пристрастием к заимствованию государственной собственности.

rating

Файл
Формат: MKV
Кодек: x264
Качество: SATRip-AVC (DVB)
Видео: MPEG-4 AVC, 532x572@773x572, 25.000 fps, 1919 kbps, 0.252 bit/pixel
Аудио: Русский, AC3, 2 chnls, 192 kbps
x264 [info]: frame I:246 Avg QP:16.86 size: 44807
x264 [info]: frame P:10466 Avg QP:19.20 size: 19936
x264 [info]: frame B:28291 Avg QP:20.36 size: 5464
x264 [info]: consecutive B-frames: 4.7% 7.0% 11.3% 25.4% 21.2% 26.4% 2.3% 1.2% 0.3% 0.2% 0.0%
Format : Matroska
Format version : Version 4
File size : 393 MiB
Duration : 26 min 0 s
Overall bit rate : 2 115 kb/s
Movie name : В. Давыдов и Голиаф (1985) - Rip by -{am}-
Encoded date : UTC 2021-02-13 22:05:08
Writing application : mkvmerge v7.2.0 ('On Every Street') 32bit built on Sep 13 2014 15:42:11
Writing library : libebml v1.3.0 + libmatroska v1.4.1
Attachments : poster.png

Video
ID : 1
Format : AVC
Format/Info : Advanced Video Codec
Format profile : High@L4.1
Format settings : CABAC / 16 Ref Frames
Format settings, CABAC : Yes
Format settings, Reference : 16 frames
Codec ID : V_MPEG4/ISO/AVC
Duration : 26 min 0 s
Bit rate : 1 919 kb/s
Width : 532 pixels
Height : 572 pixels
Display aspect ratio : 4:3
Original display aspect rat : 4:3
Frame rate mode : Constant
Frame rate : 25.000 FPS
Color space : YUV
Chroma subsampling : 4:2:0
Bit depth : 8 bits
Scan type : Progressive
Bits/(Pixel*Frame) : 0.252
Stream size : 357 MiB (91%)
Title : V.Davydov.i.Goliaf.1985.{am}.773.Rus
Writing library : x264 core 161 r3043+53M 5ab00ad t_mod_New [(8 & 10)-bit@all X86_64]
Encoding settings : cabac=1 / ref=16 / deblock=1:-3:-2 / analyse=0x3:0x133 / me=umh / subme=11 / psy=1 / fade_compensate=0.00 / psy_rd=1.00:0.20 / mixed_ref=1 / me_range=48 / chroma_me=1 / trellis=2 / 8x8dct=1 / cqm=2 / deadzone=21,11 / fast_pskip=0 / chroma_qp_offset=-3 / threads=18 / lookahead_threads=4 / sliced_threads=0 / nr=0 / decimate=0 / interlaced=0 / bluray_compat=0 / constrained_intra=0 / fgo=0 / bframes=10 / b_pyramid=2 / b_adapt=2 / b_bias=0 / direct=3 / weightb=1 / open_gop=0 / weightp=2 / keyint=250 / keyint_min=25 / scenecut=40 / intra_refresh=0 / rc_lookahead=40 / rc=crf / mbtree=0 / crf=17.9000 / qcomp=0.60 / qpmin=0:0:0 / qpmax=30:30:30 / qpstep=4 / vbv_maxrate=50000 / vbv_bufsize=62500 / crf_max=0.0 / nal_hrd=none / filler=0 / ip_ratio=1.40 / pb_ratio=1.30 / aq=3:1.00 / aq-sensitivity=10.00 / aq-factor=1.00:1.00:1.00 / aq2=0 / aq3=0
Language : Russian
Default : Yes
Forced : No

Audio
ID : 2
Format : AC-3
Format/Info : Audio Coding 3
Commercial name : Dolby Digital
Codec ID : A_AC3
Duration : 26 min 0 s
Bit rate mode : Constant
Bit rate : 192 kb/s
Channel(s) : 2 channels
Channel layout : L R
Sampling rate : 48.0 kHz
Frame rate : 31.250 FPS (1536 SPF)
Compression mode : Lossy
Stream size : 35.7 MiB (9%)
Title : Original
Language : Russian
Service kind : Complete Main
Default : Yes
Forced : No
скриншот  скриншот  скриншот  

скриншот  скриншот  скриншот  

скриншот  скриншот  скриншот  
piratbit.org



Скачать В. Давыдов и Голиаф через торрент https://img11.lostpic.net/2021/02/22/bca9a5f1a37eba3eface164352edb32d.th.png Скачать фильм В. Давыдов и Голиаф через торрент бесплантно в хорошем качестве Описание: Комедия о поединке семиклассника Вити Давыдова, с рабочим Голиафом, известным не только своим могучим телосложением, но и ... 10 10 1
Торрент: Зарегистрирован [2021-02-22 21:39] · скачан: 4 раз
Статус: √ проверено
Размер: 393 MB
Как cкачать? Как скачать В. Давыдов и Голиаф через торрент | UTorrent

% Раздел Тема Автор DL S | L
Кино СССР [ 1.49 GB ] Сборник короткометражных кинокомедий: В. Давыдов и Голиаф Покушение Рыпкина любовь [1985 1987 1993 короткометражный DVDRip-AVC] serg7628 Скачать
7 | 0

28-11-2019 20:33  

Отключить всю рекламу на сайте

    Дорогой пользователь! Огромная просьба, поблагодарите релизера, оцените раздачу и оставьте свои комментарий, если Вы скачали В. Давыдов и Голиаф через торрент бесплатно! Внесите свою лепту в развитие PiratBit!
    Комментировать посты могут только пользователи прошедшие не сложную регистрацию
    Показать сообщения:    

    В. Давыдов и Голиаф через торрент
    Скачать бесплатно В. Давыдов и Голиаф
    В. Давыдов и Голиаф скачать торрент
    В. Давыдов и Голиаф смотреть онлайн
    Cкачать фильм В. Давыдов и Голиаф бесплатно
    В. Давыдов и Голиаф скачать торрент в хорошем качестве
    В. Давыдов и Голиаф смотреть онлайн бесплатно в хорошем качестве


    Вы не можете начинать темы
    Вы не можете отвечать на сообщения
    Вы не можете редактировать свои сообщения
    Вы не можете удалять свои сообщения
    Вы не можете голосовать в опросах
    Вы не можете прикреплять файлы к сообщениям
    Вы можете скачивать файлы