1 сезон

1 сезон

iTunes

1

КиноПоиск HD

Кинопоиск HD

iTunes

13

1 сезон

RePack

30

Ultimate

ВАЖНО

ИГРА 18+

pack

RePack

MK11
pack

Легкие деньги

RePack

jed

RePack

fifa19

RePack

RDR2

RePack

NEED FOR SPEED™ PAYBACK

4 сезон

9 сезон

Бесстыжие 9 сезон

Все сериалы

все сериалы на PB.wtf

RePack

FAR CRY 5
  
Magnet ссылка

Райя и последний дракон / Raya and the Last Dragon (Дон Холл, Карлос Лопес Эстрада, Пол Бриггс) [2021, Мультфильм, фэнтези, боевик, комедия, приключения, семейный, WEB-DL 1080p] DUB [Line] piratbit.org

Райя и последний дракон через торрент piratbit.org

Раздают: 31 [ 67 KB/s ]
Размер: 7.19 GB | Добавлен: 1 мес. 13 д. назад | Торрент скачан:1118 раз
Скачать  

07-03-2021 08:48 Райя и последний дракон Скачать торрент  

Райя и последний дракон | Raya and the Last Dragon
Год выпуска: 2021
Страна: США
Выпущено: Walt Disney Animation Studios, Walt Disney Pictures
Жанр: Мультфильм, фэнтези, боевик, комедия, приключения, семейный
Продолжительность: 01:47:28
Перевод: Дублированный | Line
Субтитры: Русские, английские, французские

Режиссер: Дон Холл, Карлос Лопес Эстрада, Пол Бриггс

rating


В ролях: Келли Мари Трэн, Аквафина, Айзек Ванг, Джемма Чан, Дэниэл Дэ Ким, Бенедикт Вонг, Джона Сяо, Сандра О, Талия Чан, Люсиль Сун, Алан Тьюдик, Гордон Ип, Дичен Лакмэн, Патти Харрисон, Джонатан Пак, Сон Ган

Описание: Отважной воительнице по имени Райя и её верному спутнику Тук-Туку предстоит покинуть родное королевство Кумандра, чтобы отыскать последнего оставшегося в мире дракона, и с его помощью вернуть надежду на победу над могущественным врагом.

Качество: WEB-DL 1080p
Формат: MKV

Видео: MPEG-4 AVC, 7274 Кбит/с, 1920x1080, 23.976 кадр/с
Аудио#1: Русский (AC3, 2 ch, 256 Кбит/с)
Аудио#2: Русский (PCM, 2 ch, 1536 Кбит/с
Аудио#3: английский (AC3, 2 ch, 256 Кбит/с)
Аудио#4: английский (E-AC3, 2 ch, 256 Кбит/с)
скриншот  скриншот  скриншот  скриншот  скриншот  

Общее
Уникальный идентификатор : 100332511478692946028604010531779756227 (0x4B7B56BD4038E95E2A3E7F160183C0C3)
Полное имя : D:\Торренты\Raya.and.the.Last.Dragon. ... DSNP.WEB-DL.DDP5.1.H.264-TOMMY\Raya.and.the.Last.Dragon.1080p.DSNP.WEB-DL.KinoPub.mkv
Формат : Matroska
Версия формата : Version 4
Размер файла : 7,19 Гбайт
Продолжительность : 1 ч. 47 м.
Режим общего битрейта : Переменный
Общий поток : 9 582 Кбит/сек
Название фильма : KinoPub: Райя и последний дракон / Raya and the Last Dragon (2021)
Дата кодирования : UTC 2021-03-07 07:38:51
Программа кодирования : mkvmerge v25.0.0 ('Prog Noir') 64-bit
Библиотека кодирования : libebml v1.3.6 + libmatroska v1.4.9
Обложка : Yes
Attachments : Cover.png

Видео
Идентификатор : 1
Формат : AVC
Формат/Информация : Advanced Video Codec
Профиль формата : High@L4
Настройки формата : CABAC / 4 Ref Frames
Параметр CABAC формата : Да
Параметр RefFrames формата : 4 кадра
Идентификатор кодека : V_MPEG4/ISO/AVC
Продолжительность : 1 ч. 47 м.
Вид битрейта : Переменный
Битрейт : 7 274 Кбит/сек
Максимальный битрейт : 12,7 Мбит/сек
Ширина : 1 920 пикселей
Высота : 1 080 пикселей
Соотношение сторон : 16:9
Режим частоты кадров : Постоянный
Частота кадров : 23,976 (24000/1001) кадра/сек
Цветовое пространство : YUV
Субдискретизация насыщенности : 4:2:0
Битовая глубина : 8 бит
Тип развёртки : Прогрессивная
Бит/(Пиксели*Кадры) : 0.146
Размер потока : 5,46 Гбайт (76%)
Язык : English
Default : Да
Forced : Нет
Цветовой диапазон : Limited
Основные цвета : BT.709
Характеристики трансфера : BT.709
Коэффициенты матрицы : BT.709

Аудио #1
Идентификатор : 2
Формат : AC-3
Формат/Информация : Audio Coding 3
Коммерческое название : Dolby Digital
Идентификатор кодека : A_AC3
Продолжительность : 1 ч. 47 м.
Вид битрейта : Постоянный
Битрейт : 256 Кбит/сек
Каналы : 2 канала
Channel layout : L R
Частота : 48,0 КГц
Частота кадров : 31,250 кадров/сек (1536 SPF)
Метод сжатия : С потерями
Размер потока : 197 Мбайт (3%)
Заголовок : DUB Line | KinoPub
Язык : Russian
Service kind : Complete Main
Default : Да
Forced : Нет

Аудио #2
Идентификатор : 3
Формат : PCM
Настройки формата : Little / Signed
Идентификатор кодека : A_PCM/INT/LIT
Продолжительность : 1 ч. 47 м.
Вид битрейта : Постоянный
Битрейт : 1 536 Кбит/сек
Каналы : 2 канала
Частота : 48,0 КГц
Частота кадров : 32,000 кадра/сек (1500 SPF)
Битовая глубина : 16 бит
Размер потока : 1,15 Гбайт (16%)
Заголовок : DUB Line | KinoPub
Язык : Russian
Default : Нет
Forced : Нет

Аудио #3
Идентификатор : 4
Формат : AC-3
Формат/Информация : Audio Coding 3
Коммерческое название : Dolby Digital
Идентификатор кодека : A_AC3
Продолжительность : 1 ч. 47 м.
Вид битрейта : Постоянный
Битрейт : 256 Кбит/сек
Каналы : 6 каналов
Channel layout : L R C LFE Ls Rs
Частота : 48,0 КГц
Частота кадров : 31,250 кадров/сек (1536 SPF)
Метод сжатия : С потерями
Размер потока : 197 Мбайт (3%)
Язык : English
Service kind : Complete Main
Default : Нет
Forced : Нет

Аудио #4
Идентификатор : 5
Формат : E-AC-3
Формат/Информация : Enhanced AC-3
Коммерческое название : Dolby Digital Plus
Идентификатор кодека : A_EAC3
Продолжительность : 1 ч. 47 м.
Вид битрейта : Постоянный
Битрейт : 256 Кбит/сек
Каналы : 6 каналов
Channel layout : L R C LFE Ls Rs
Частота : 48,0 КГц
Частота кадров : 31,250 кадров/сек (1536 SPF)
Метод сжатия : С потерями
Размер потока : 197 Мбайт (3%)
Заголовок : English
Язык : English
Service kind : Complete Main
Default : Нет
Forced : Нет

Текст #1
Идентификатор : 6
Формат : UTF-8
Идентификатор кодека : S_TEXT/UTF8
Идентификатор кодека/Информация : UTF-8 Plain Text
Продолжительность : 1 ч. 34 м.
Битрейт : 84 бит/сек
Count of elements : 1257
Размер потока : 58,4 Кбайт (0%)
Заголовок : FOCS | Full
Язык : Russian
Default : Нет
Forced : Нет

Текст #2
Идентификатор : 7
Формат : UTF-8
Идентификатор кодека : S_TEXT/UTF8
Идентификатор кодека/Информация : UTF-8 Plain Text
Продолжительность : 1 ч. 37 м.
Битрейт : 68 бит/сек
Count of elements : 1919
Размер потока : 48,8 Кбайт (0%)
Заголовок : English (SDH)
Язык : English
Default : Нет
Forced : Нет

Текст #3
Идентификатор : 8
Формат : UTF-8
Идентификатор кодека : S_TEXT/UTF8
Идентификатор кодека/Информация : UTF-8 Plain Text
Продолжительность : 1 ч. 45 м.
Битрейт : 43 бит/сек
Count of elements : 1114
Размер потока : 33,4 Кбайт (0%)
Заголовок : Français
Язык : French
Default : Нет
Forced : Нет

Текст #4
Идентификатор : 9
Формат : UTF-8
Идентификатор кодека : S_TEXT/UTF8
Идентификатор кодека/Информация : UTF-8 Plain Text
Продолжительность : 1 ч. 47 м.
Битрейт : 55 бит/сек
Count of elements : 1604
Размер потока : 43,6 Кбайт (0%)
Заголовок : Français (SDH)
Язык : French
Default : Нет
Forced : Нет

piratbit.org



Скачать Райя и последний дракон через торрент http://c.radikal.ru/c20/2103/c0/0617ff3bd742.png Скачать фильм Райя и последний дракон через торрент бесплантно в хорошем качестве Описание: Отважной воительнице по имени Райя и её верному спутнику Тук-Туку предстоит покинуть родное королевство Кумандра, чтобы отыскать ... 10 10 39
Info! Золотая раздача, скачанное не засчитывается.
Торрент: Зарегистрирован [2021-03-07 08:48] · скачан: 1 118 раз
Статус: T временная
Размер: 7.19 GB
Как cкачать? Как скачать Райя и последний дракон через торрент | UTorrent

% Раздел Тема Автор DL S | L
Мультфильмы (48-60 fps) [ 3.49 GB ] Райя и последний дракон / Raya and the Last Dragon [2021 Мультфильм WEB-DLRip 720p / 60 FPS ] от R.G. HD-Films slaventi-69 Скачать
14 | 0
Иностранные мультфильмы [ 1.45 GB ] Райя и последний дракон / Raya and the Last Dragon [2021 Мультфильм WEB-DLRip-AVC] [Line] от MediaBit Lithuania Скачать
18 | 0
T Иностранные мультфильмы [ 1.46 GB ] Райя и последний дракон / Raya and the Last Dragon [2021 Мультфильм WEB-DLRip] DUB [Line] bober100 Скачать
6 | 1
T Ultra HD (UHD: 2K, 4K, 8K) [ 14.1 GB ] Райя и последний дракон / Raya and the Last Dragon [2021 Мультфильм UHD WEB-DL 2160p] DUB [Line] bober100 Скачать
5 | 0

28-11-2019 20:33  

Отключить всю рекламу на сайте

09-03-2021 11:18 Райя и последний дракон Скачать торрент  

Мульт шикаренpiratbit.org



13-03-2021 15:00 Райя и последний дракон Скачать торрент  

ужасный звук как с ТС, озвучка- субьективно. конечно, но УЖАСНА!!! Я не могу это объяснить - или очень долго буду описывать мелочи- но озвучка ужасна...А из за этого к половине фильма увидел только какие то феминистические загоны. Надеюсь- дальнейшее развитие событий докажет ,что "мульт -шикарен"....piratbit.org



    Дорогой пользователь! Огромная просьба, поблагодарите релизера, оцените раздачу и оставьте свои комментарий, если Вы скачали Райя и последний дракон через торрент бесплатно! Внесите свою лепту в развитие PiratBit!
    Комментировать посты могут только пользователи прошедшие не сложную регистрацию
    Показать сообщения:    

    Райя и последний дракон через торрент
    Скачать бесплатно Райя и последний дракон
    Райя и последний дракон скачать торрент
    Райя и последний дракон смотреть онлайн
    Cкачать фильм Райя и последний дракон бесплатно
    Райя и последний дракон скачать торрент в хорошем качестве
    Райя и последний дракон смотреть онлайн бесплатно в хорошем качестве


    Вы не можете начинать темы
    Вы не можете отвечать на сообщения
    Вы не можете редактировать свои сообщения
    Вы не можете удалять свои сообщения
    Вы не можете голосовать в опросах
    Вы не можете прикреплять файлы к сообщениям
    Вы можете скачивать файлы