1 сезон

1 сезон

iTunes

1

КиноПоиск HD

Кинопоиск HD

iTunes

13

1 сезон

RePack

30

Ultimate

ВАЖНО

ИГРА 18+

pack

RePack

MK11
pack

Легкие деньги

RePack

jed

RePack

fifa19

RePack

RDR2

RePack

NEED FOR SPEED™ PAYBACK

4 сезон

9 сезон

Бесстыжие 9 сезон

Все сериалы

все сериалы на PB.wtf

RePack

FAR CRY 5
  
Magnet ссылка

Джек и механическое сердце / Механика сердца / Jack et la mécanique du coeur (Стефан Берла, Матиас Мальзьё) [2013, Мультфильм, мюзикл, фэнтези, семейный, BDRip 720p] DUB [iTunes] +MVO [AlexFilm] piratbit.org

Джек и механическое сердце через торрент piratbit.org

Раздают: 2 [ 0 KB/s ]
Размер: 3.87 GB | Добавлен: 1 мес. 15 д. назад | Торрент скачан:115 раз
Скачать  

07-03-2021 17:18 Джек и механическое сердце Скачать торрент  

Джек и механическое сердце | Механика сердца | Jack et la mécanique du coeur
Год выпуска: 2013
Страна: Франция, Бельгия
Выпущено: Canal+ [fr], Ciné, Duran, EuropaCorp, Fonds Film in Vlaanderen, France 3 Cinéma
Жанр: Мультфильм, мюзикл, фэнтези, драма, мелодрама, приключения, семейный
Продолжительность: 01:32:34
Перевод:
#1: Дублированный | iTunes
#2: Профессиональное (многоголосый) | AlexFilm
Субтитры: Русские (Forced, Full), французские

Режиссер: Стефан Берла, Матиас Мальзьё

rating

В ролях: Матиас Мальзьё, Оливия Руис, Гран Кор Маляд, Жан Рошфор, Росси де Пальма, Бабет, Мари Винсент, Эмили Луазо, Артур Аш, Дани

Описание: Джек родился в «самый холодный день», и его сердце мгновенно оледенело. Сироту усыновила волшебница Мадлен. Она вставила ему в грудь часы, поддерживающие сердцебиение, и наказала соблюдать три правила, самое главное из которых – «никогда не влюбляться». Однако подросший Джек невольно нарушает запрет.

Качество: BDRip 720p
Формат: MKV

Видео: MPEG-4 AVC, 4326 Kb/s, 1280x720, 24 fps
Аудио #1 Russian: 48 kHz, AC3 Dolby Digital, 3/2 (L, C, R, l, r) + LFE ch, ~384 Kbps | DUB | iTunes
Аудио #2 Russian: 48 kHz, AC3 Dolby Digital, 3/2 (L, C, R, l, r) + LFE ch, ~640 Kbps | MVO | AlexFilm
Аудио #3 French: 48 kHz, AC3 Dolby Digital, 3/2 (L, C, R, l, r) + LFE ch, ~640 Kbps | Original
скриншот  скриншот  скриншот  скриншот  

Complete name : Dzhek.i.mehanicheskoe.serdtse.2013.BDRip.720p.ELEKTRI4KA.UNIONGANG.mkv
Format : Matroska
Format version : Version 4
File size : 3.87 GiB
Duration : 1 h 32 min
Overall bit rate : 5 993 kb/s
Movie name : Dzhek.i.mehanicheskoe.serdtse.2013.BDRip.720p.ELEKTRI4KA.UNIONGANG.
Encoded date : UTC 2021-03-07 14:47:04
Writing application : mkvmerge v8.3.0 ('Over the Horizon') 64bit
Writing library : libebml v1.3.1 + libmatroska v1.4.2

Video
ID : 1
Format : AVC
Format/Info : Advanced Video Codec
Format profile : High@L4.1
Format settings : CABAC / 9 Ref Frames
Format settings, CABAC : Yes
Format settings, Reference frames : 9 frames
Codec ID : V_MPEG4/ISO/AVC
Duration : 1 h 32 min
Bit rate : 4 326 kb/s
Width : 1 280 pixels
Height : 720 pixels
Display aspect ratio : 16:9
Frame rate mode : Constant
Frame rate : 24.000 FPS
Color space : YUV
Chroma subsampling : 4:2:0
Bit depth : 8 bits
Scan type : Progressive
Bits/(Pixel*Frame) : 0.196
Stream size : 2.80 GiB (72%)
Writing library : x264 core 148
Encoding settings : cabac=1 / ref=9 / deblock=1:-3:-3 / analyse=0x3:0x133 / me=umh / subme=11 / psy=1 / psy_rd=1.05:0.00 / mixed_ref=1 / me_range=48 / chroma_me=1 / trellis=2 / 8x8dct=1 / cqm=0 / deadzone=21, 11 / fast_pskip=0 / chroma_qp_offset=-2 / threads=12 / lookahead_threads=2 / sliced_threads=0 / nr=0 / decimate=1 / interlaced=0 / bluray_compat=0 / constrained_intra=0 / bframes=8 / b_pyramid=2 / b_adapt=2 / b_bias=0 / direct=3 / weightb=1 / open_gop=0 / weightp=2 / keyint=240 / keyint_min=24 / scenecut=40 / intra_refresh=0 / rc=crf / mbtree=0 / crf=15.0 / qcomp=0.80 / qpmin=0 / qpmax=69 / qpstep=4 / ip_ratio=1.40 / pb_ratio=1.30 / aq=3:1.00
Default : Yes
Forced : No

Audio #1
ID : 2
Format : AC-3
Format/Info : Audio Coding 3
Commercial name : Dolby Digital
Codec ID : A_AC3
Duration : 1 h 32 min
Bit rate mode : Constant
Bit rate : 384 kb/s
Channel(s) : 6 channels
Channel layout : L R C LFE Ls Rs
Sampling rate : 48.0 kHz
Frame rate : 31.250 FPS (1536 SPF)
Compression mode : Lossy
Stream size : 254 MiB (6%)
Title : DUB (iTunes)
Language : Russian
Service kind : Complete Main
Default : Yes
Forced : Yes

Audio #2
ID : 3
Format : AC-3
Format/Info : Audio Coding 3
Commercial name : Dolby Digital
Codec ID : A_AC3
Duration : 1 h 32 min
Bit rate mode : Constant
Bit rate : 640 kb/s
Channel(s) : 6 channels
Channel layout : L R C LFE Ls Rs
Sampling rate : 48.0 kHz
Frame rate : 31.250 FPS (1536 SPF)
Compression mode : Lossy
Stream size : 424 MiB (11%)
Title : MVO AlexFilm (French version)
Language : Russian
Service kind : Complete Main
Default : No
Forced : No

Audio #3
ID : 4
Format : AC-3
Format/Info : Audio Coding 3
Commercial name : Dolby Digital
Codec ID : A_AC3
Duration : 1 h 32 min
Bit rate mode : Constant
Bit rate : 640 kb/s
Channel(s) : 6 channels
Channel layout : L R C LFE Ls Rs
Sampling rate : 48.0 kHz
Frame rate : 31.250 FPS (1536 SPF)
Compression mode : Lossy
Stream size : 424 MiB (11%)
Title : French (Original)
Language : French
Service kind : Complete Main
Default : No
Forced : No

Text #1
ID : 5
Format : ASS
Codec ID : S_TEXT/ASS
Codec ID/Info : Advanced Sub Station Alpha
Duration : 1 h 26 min
Bit rate : 31 b/s
Count of elements : 200
Compression mode : Lossless
Stream size : 20.2 KiB (0%)
Title : AlexFilm Forced (French version)
Language : Russian
Default : No
Forced : No

Text #2
ID : 6
Format : ASS
Codec ID : S_TEXT/ASS
Codec ID/Info : Advanced Sub Station Alpha
Duration : 1 h 28 min
Bit rate : 160 b/s
Count of elements : 1000
Compression mode : Lossless
Stream size : 104 KiB (0%)
Title : AlexFilm Full (French version)
Language : Russian
Default : No
Forced : No

Text #3
ID : 7
Format : UTF-8
Codec ID : S_TEXT/UTF8
Codec ID/Info : UTF-8 Plain Text
Duration : 1 h 31 min
Bit rate : 71 b/s
Count of elements : 1541
Stream size : 47.8 KiB (0%)
Title : French (Original)
Language : French
Default : No
Forced : No

Menu
00:00:00.000 : :Chapter 1
00:08:17.250 : :Chapter 2
00:18:12.250 : :Chapter 3
00:26:47.000 : :Chapter 4
00:36:34.750 : :Chapter 5
00:45:16.125 : :Chapter 6
00:52:54.625 : :Chapter 7
01:03:16.500 : :Chapter 8
01:11:44.125 : :Chapter 9
01:20:41.125 : :Chapter 10
01:27:23.250 : :Chapter 11

piratbit.org



Скачать Джек и механическое сердце через торрент http://i67.fastpic.ru/big/2014/0710/24/09e071899cfa35ec2bffd97148c94a24.png Скачать фильм Джек и механическое сердце через торрент бесплантно в хорошем качестве Описание: Джек родился в «самый холодный день», и его сердце мгновенно оледенело. Сироту усыновила волшебница Мадлен. Она вставила ему в ... 10 10 3
Торрент: Зарегистрирован [2021-03-07 17:18] · скачан: 115 раз
Статус: √ проверено
Размер: 3.87 GB
Как cкачать? Как скачать Джек и механическое сердце через торрент | UTorrent

% Раздел Тема Автор DL S | L
Иностранные мультфильмы [ 1.46 GB ] Джек и механическое сердце / Механика сердца / Jack et la mécanique du coeur [2013 Мультфильм мюзикл BDRip] bober100 Скачать
2 | 0
Зарубежные Мультфильмы (BDRip 1080p, 720p, Blu-ray, BD-Remux) [ 7.22 GB ] Джек и механическое сердце / Механика сердца / Jack et la mécanique du coeur [2013 Мультфильм мюзикл BDRip 1080p] +MVO [AlexFilm] bober100 Скачать
2 | 0

28-11-2019 20:33  

Отключить всю рекламу на сайте


    Дорогой пользователь! Огромная просьба, поблагодарите релизера, оцените раздачу и оставьте свои комментарий, если Вы скачали Джек и механическое сердце через торрент бесплатно! Внесите свою лепту в развитие PiratBit!
    Комментировать посты могут только пользователи прошедшие не сложную регистрацию
    Показать сообщения:    

    Джек и механическое сердце через торрент
    Скачать бесплатно Джек и механическое сердце
    Джек и механическое сердце скачать торрент
    Джек и механическое сердце смотреть онлайн
    Cкачать фильм Джек и механическое сердце бесплатно
    Джек и механическое сердце скачать торрент в хорошем качестве
    Джек и механическое сердце смотреть онлайн бесплатно в хорошем качестве


    Вы не можете начинать темы
    Вы не можете отвечать на сообщения
    Вы не можете редактировать свои сообщения
    Вы не можете удалять свои сообщения
    Вы не можете голосовать в опросах
    Вы не можете прикреплять файлы к сообщениям
    Вы можете скачивать файлы