1 сезон

3 сезон

iTunes

1

iTunes

DUB Netflix

iTunes

13

1 сезон

RePack

30

Deluxe

pack

Легкие деньги

ВАЖНО

ИГРА 18+

pack

RePack

MK11

RePack

jed

RePack

fifa19

RePack

RDR2

RePack

NEED FOR SPEED™ PAYBACK

4 сезон

9 сезон

Бесстыжие 9 сезон

Все сериалы

все сериалы на PB.wtf

RePack

FAR CRY 5

Anonymous, добрый день, мы не успеваем до 1 числа собрать деньги на оплату серверов, помогите нам пожалуйста в это трудное время. В качестве благодарности мы отключим Вам всю рекламу на сайте (укажите свой ник в строку Ваше имя)!

×
  
Magnet ссылка

Девушки с Макаровым / Сезон: 1 / Серии: 1-20 из 20 (Константин Смирнов) [2021, Комедия, WEBRip] piratbit.org

Девушки с Макаровым через торрент piratbit.org

Размер: 7.3 GB | Добавлен: 2 мес. 10 д. назад | Торрент скачан:57 раз
Скачать  

09-03-2021 19:04 Девушки с Макаровым Скачать торрент  

Девушки с Макаровым
Год выпуска: 2021
Страна: Россия
Студия: Comedy Club Production
Жанр: Комедия
Продолжительность: ~ 00:25:00
Перевод: Не требуется
Субтитры: отсутствуют

Режиссер: Константин Смирнов (VI)



В ролях: Павел Майков, Алевтина Тукан, Валерия Астапова, Владислава Ермолаева, Елена Полянская, Олеся Судзиловская, Георгий Дронов, Сергей Астахов, Дмитрий Лысенков, Андрей Пынзару, Анна Невская, Олег Евтеев, Никита Абдулов, Руслан Ягудин

Описание: Желая подкинуть проблем Макарову, лучшему полицейскому московского района Бутово, новое начальство выделяет ему «подкрепление» – четырех бывших студенток: отличницу Анну Туркину, самбистку Сашу Попову, мать-одиночку Олесю Вербу и просто красавицу Катю Синицкую. По задумке начальства девушки должны ужаснуться характеру Макарова и настучать на грубияна, постоянно превышающего свои полномочия, а по задумке самого Макарова – уволиться после первого же дня, в который им пришлось выполнять самые нелепые поручения. Но что-то пошло не так. Новоиспеченные оперативницы серьезно от-неслись к работе и собрались ответственно нести службу с непростым наставником. Вместе брутальному Макарову и четверым дебютанткам предстоит блюсти порядок в неспокойном районе, раскрывать неочевидные дела, но при этом не забывать и про личную жизнь.

Качество: WEBRip
Формат: AVI

Видео: XviD, ~ 1710 Кбит/с, 720x400
Аудио: 48.0 kHz, AC3 Dolby Digital, 2/0 (L,R) ch, ~ 192 kbps
скриншот  скриншот  скриншот  скриншот  

Общее
Полное имя : C:\Devushki.s.makarovym.S01.WEB-DLRip.25Kuzmich\Devushki.s.makarovym.s01.e01.WEB-DLRip.25Kuzmich.avi
Формат : AVI
Формат/Информация : Audio Video Interleave
Размер файла : 349 Мбайт
Продолжительность : 25 м. 40 с.
Общий поток : 1903 Кбит/сек
Программа кодирования : VirtualDubMod 1.5.10.3 | www.virtualdub-fr.org || (build 2550/release)
Библиотека кодирования : VirtualDubMod build 2550/release

Видео
Идентификатор : 0
Формат : MPEG-4 Visual
Профиль формата : Advanced Simple@L5
Настройки формата : BVOP1
Параметр BVOP формата : 1
Параметр QPel формата : Нет
Параметр GMC формата : Без точки перехода
Параметр матрицы формата : Default (MPEG)
Идентификатор кодека : XVID
Идентификатор кодека/Подсказка : XviD
Продолжительность : 25 м. 40 с.
Битрейт : 1701 Кбит/сек
Ширина : 720 пикселей
Высота : 400 пикселей
Соотношение сторон : 16:9
Частота кадров : 25,000 кадров/сек
Цветовое пространство : YUV
Субдискретизация насыщенности : 4:2:0
Битовая глубина : 8 бит
Тип развёртки : Прогрессивная
Метод сжатия : С потерями
Бит/(Пиксели*Кадры) : 0.236
Размер потока : 312 Мбайт (89%)
Библиотека кодирования : XviD 73

Аудио
Идентификатор : 1
Формат : AC-3
Формат/Информация : Audio Coding 3
Коммерческое название : Dolby Digital
Идентификатор кодека : 2000
Продолжительность : 25 м. 40 с.
Вид битрейта : Постоянный
Битрейт : 192 Кбит/сек
Каналы : 2 канала
ChannelLayout : L R
Частота : 48,0 КГц
Частота кадров : 31,250 кадров/сек (1536 SPF)
Битовая глубина : 16 бит
Метод сжатия : С потерями
Размер потока : 35,3 Мбайт (10%)
Выравнивание : Разделение по промежуткам
Продолжительность промежутка : 40 мс. (1,00 видеокадр)
Время предзагрузки промежутка : 500 мс.
ServiceKind/String : Complete Main

Когда раздача ведётся путём добавления новых серий, при каждом добавлении создётся новый торрент. Чтобы начать докачку новой серии, пользователям необходимо сделать следующее:
(1) остановить скачивание,
(2) удалить старый торрент у себя из клиента (старые серии удалять не надо),
(3) скачать новый торрент и запустить его у себя в клиенте вместо старого, при этом указать клиенту путь в старую папку, куда и должно происходить скачивание новых серий.
Ваш клиент при этом должен произвести хеширование (проверку) старой папки (если не производит сам - помогите ему сделать это), и будет докачивать только те серии, которых у вас ещё нет. Старые серии при этом не удаляются, а продолжают раздаваться!
Eсли вы уже удалили старые серии, то предотвратить повторную закачку старых серий можно, отжав галочку в соответсвующих местах при запуске нового торрента. По возможности, желательно не удалять старые серии как можно дольше, чтобы релизёр не столько продолжал раздавать старые серии, а смог сконцентрироваться на новых.

piratbit.org



Скачать Девушки с Макаровым через торрент https://c.radikal.ru/c29/2103/15/6dbd1d8bd5f3.jpg Скачать фильм Девушки с Макаровым через торрент бесплантно в хорошем качестве Описание: Желая подкинуть проблем Макарову, лучшему полицейскому московского района Бутово, новое начальство выделяет ему «подкрепление» – ... 9.1 10 19
Торрент: Зарегистрирован [2021-04-09 04:19] · скачан: 57 раз
Статус: √ проверено
Размер: 7.3 GB
Как cкачать? Как скачать Девушки с Макаровым через торрент | UTorrent

% Раздел Тема Автор DL S | L
TNT serials [ 17.2 GB ] Девушки с Макаровым / Сезон: 1 / Серии: 1-20 из 20 [2021 WEBRip 1080p] bober100 Скачать
3 | 1
Наши сериалы [ 6.58 GB ] Девушки с Макаровым / Сезон: 1 / Серии: 1-20 из 20 [2021 WEBRip-AVC] bober100 Скачать
1 | 0
TNT serials [ 6.99 GB ] Девушки с Макаровым / Сезон: 1 / Серии: 1-20 из 20 [2021 SATRip] bober100 Скачать
8 | 0
TNT serials [ 19.33 GB ] Девушки с Макаровым / Сезон: 1 / Серии: 1-20 из 20 [2021 HDTV 1080i] bober100 Скачать
3 | 2
TNT serials [ 11.69 GB ] Девушки с Макаровым / Сезон: 1 / Серии: 1-20 из 20 [2021 WEBRip 720p] bober100 Скачать
5 | 0


Последний раз редактировалось: bober100 (2021-05-18 09:02), всего редактировалось 8 раз(а)

28-11-2019 20:33  

Отключить всю рекламу на сайте

12-03-2021 09:23 Девушки с Макаровым Скачать торрент  

мусорный сериалpiratbit.org



24-03-2021 16:37 Девушки с Макаровым Скачать торрент  

Забавно, шаблонно, интерны про полицию, вкусная жвачка (пожевал - выплюнул). Иногда хочется просто пожевать, поэтому не надо искать в "Девушках с Макаровым" что-то питательное.piratbit.org



25-03-2021 10:00 Девушки с Макаровым Скачать торрент  

Так, а почему нет негров, трансов и лезбиянок? piratbit.org



    Дорогой пользователь! Огромная просьба, поблагодарите релизера, оцените раздачу и оставьте свои комментарий, если Вы скачали Девушки с Макаровым через торрент бесплатно! Внесите свою лепту в развитие PiratBit!
    Комментировать посты могут только пользователи прошедшие не сложную регистрацию
    Показать сообщения:    

    Девушки с Макаровым через торрент
    Скачать бесплатно Девушки с Макаровым
    Девушки с Макаровым скачать торрент
    Девушки с Макаровым смотреть онлайн
    Cкачать фильм Девушки с Макаровым бесплатно
    Девушки с Макаровым скачать торрент в хорошем качестве
    Девушки с Макаровым смотреть онлайн бесплатно в хорошем качестве


    Вы не можете начинать темы
    Вы не можете отвечать на сообщения
    Вы не можете редактировать свои сообщения
    Вы не можете удалять свои сообщения
    Вы не можете голосовать в опросах
    Вы не можете прикреплять файлы к сообщениям
    Вы можете скачивать файлы