Присоединяйтесь к нам в Telegram!, здесь всегда актуальный адрес сайта, оперативная поддержка и многое другое!!

>

5.9

iTunes

7.4

iTunes

9.4

1 сезон

1

7.4

2 сезон

7.2

iTunes

7.3

1 сезон

13

6.1

iTunes

8.3

GOG

30

ULTIMATE

pack

9.9

Лицензия

ВАЖНО

ИГРА 18+

pack

7.3

RePack

MK11

7.7

RePack

jed

7.8

RePack

fifa19

8.5

RePack

RDR2

RePack

NEED FOR SPEED™ PAYBACK

5 сезон

9 сезон

Бесстыжие 9 сезон

Все сериалы

все сериалы на PB.wtf

RePack

FAR CRY 5

Anonymous, доброй ночи, мы катастрофически не успеваем собрать деньги на оплату серверов, помогите нам пожалуйста 5,10,15р., для нас важна любая помощь . В качестве благодарности мы отключим Вам всю рекламу на сайте (укажите свой ник в строку Ваше имя)!

×
  
Magnet ссылка

Никому не говори / Don't Tell a Soul (Алекс Маколи) [2020, Триллер, драма, криминал, HDRip-AVC] [DVO] [Hamsterstudio] от MediaBit piratbit.org

Никому не говори через торрент piratbit.org

Размер: 1.39 GB | Добавлен: 8 мес. назад | Торрент скачан:125 раз
Смотреть онлайн Никому не говори | Скачать    Ребята, помогите собрать деньги на оплату серверов!!!

11-03-2021 12:42 Никому не говори Скачать торрент  


Никому не говори / Don't Tell a Soul
Информация о фильме:
Название: Никому не говори
Оригинальное название: Don't Tell a Soul
Год выхода: 2020
Жанр: Триллер, драма, криминал
Режиссер: Алекс Маколи
В ролях: Финн Уайтхед, Джек Дилан Грейзер, Мена Сувари, Рэйн Уилсон, Маккенна Кристин По, Шеннон Коган, Кейт Дункан, Эбигейл Эсмена Фроле, Ричард Файк, Грэхэм Лютес

Описание: Братья Мэтт и Джои решают ограбить дом, чтобы помочь своей больной матери оплатить медицинские счета. Их замечает охранник Хэмби, который бросается в погоню за мальчишками и падает в глубокий колодец. Братья расходятся во мнении, что делать с человеком в колодце, о местонахождении которого знают только они. Младший Джои считает, что Хэмби нужно помочь, а старший Мэтт не хочет, чтобы охранник сдал их полиции. Хэмби же начинает свою игру, понимая, что его жизнь зависит от того, кто из братьев окажется сильнее.



Страна: США
Студия: Unbridled Films, Mangano Movies & Media
Продолжительность: 01:23:32
Перевод: Любительский (двухголосый, закадровый) - HamsterStudio



Информация о файле:
Кодек: AVC
Формат: MKV
Качество: HDRip-AVC
Видео: MPEG-4 AVC, 1024x428, 23.976 fps, 1978 kbps
Аудио RU: AC3, 6 ch, 48 kHz, 384 kbps
Субтитры: Русские (Full [Focs]), английские, испанские
Навигация по главам: Да

x264 info: frame I:1247 Avg QP:11.95 size: 87435
x264 info: frame P:25213 Avg QP:15.58 size: 25439
x264 info: frame B:93707 Avg QP:19.61 size: 5141
**************************************************
General
Unique ID : 152785621082941502003378435735706174764 (0x72F170B5A2CA54C777C174CBCE00852C)
Complete name : D:uTorrentРипы_от_wolf1245_MediaBitDont Tell a Soul.2020.DVO.Hamster.HDRip-AVC_wolf1245_MediaBit.mkv
Format : Matroska
Format version : Version 4
File size : 1.39 GiB
Duration : 1 h 23 min
Overall bit rate : 2 386 kb/s
Movie name : Dont Tell a Soul.2020.DVO.Hamster.HDRip-AVC_wolf1245_MediaBit
Encoded date : UTC 2021-03-11 12:31:52
Writing application : mkvmerge v55.0.0 ('Waiting For Space') 64-bit
Writing library : libebml v1.4.2 + libmatroska v1.6.4
Video
ID : 1
Format : AVC
Format/Info : Advanced Video Codec
Format profile : High@L4.1
Format settings : CABAC / 12 Ref Frames
Format settings, CABAC : Yes
Format settings, Reference frames : 12 frames
Codec ID : V_MPEG4/ISO/AVC
Duration : 1 h 23 min
Bit rate : 1 978 kb/s
Width : 1 024 pixels
Height : 428 pixels
Display aspect ratio : 2.40:1
Frame rate mode : Constant
Frame rate : 23.976 (24000/1001) FPS
Color space : YUV
Chroma subsampling : 4:2:0
Bit depth : 8 bits
Scan type : Progressive
Bits/(Pixel*Frame) : 0.188
Stream size : 1.15 GiB (82%)
Title : _wolf1245_MediaBit
Writing library : x264 core 157 r2958 57baac4
Encoding settings : cabac=1 / ref=12 / deblock=1:-1:-1 / analyse=0x3:0x133 / me=umh / subme=11 / psy=1 / psy_rd=1.00:0.00 / mixed_ref=1 / me_range=32 / chroma_me=1 / trellis=2 / 8x8dct=1 / cqm=0 / deadzone=21,11 / fast_pskip=1 / chroma_qp_offset=-2 / threads=10 / lookahead_threads=2 / sliced_threads=0 / nr=0 / decimate=1 / interlaced=0 / bluray_compat=0 / constrained_intra=0 / bframes=10 / b_pyramid=2 / b_adapt=2 / b_bias=0 / direct=3 / weightb=1 / open_gop=0 / weightp=2 / keyint=240 / keyint_min=24 / scenecut=40 / intra_refresh=0 / rc_lookahead=60 / rc=2pass / mbtree=1 / bitrate=1978 / ratetol=1.0 / qcomp=0.60 / qpmin=0 / qpmax=69 / qpstep=4 / cplxblur=20.0 / qblur=0.5 / vbv_maxrate=50000 / vbv_bufsize=62500 / nal_hrd=none / filler=0 / ip_ratio=1.40 / aq=1:0.80
Language : English
Default : Yes
Forced : No
Audio
ID : 2
Format : AC-3
Format/Info : Audio Coding 3
Commercial name : Dolby Digital
Codec ID : A_AC3
Duration : 1 h 23 min
Bit rate mode : Constant
Bit rate : 384 kb/s
Channel(s) : 6 channels
Channel layout : L R C LFE Ls Rs
Sampling rate : 48.0 kHz
Frame rate : 31.250 FPS (1536 SPF)
Bit depth : 32 bits
Compression mode : Lossy
Stream size : 229 MiB (16%)
Title : DVO | HamsterStudio
Language : Russian
Service kind : Complete Main
Default : Yes
Forced : No
Text #1
ID : 3
Format : UTF-8
Codec ID : S_TEXT/UTF8
Codec ID/Info : UTF-8 Plain Text
Duration : 1 h 17 min
Bit rate : 94 b/s
Count of elements : 1041
Stream size : 53.6 KiB (0%)
Title : Full | Focs
Language : Russian
Default : No
Forced : No
Text #2
ID : 4
Format : UTF-8
Codec ID : S_TEXT/UTF8
Codec ID/Info : UTF-8 Plain Text
Duration : 1 h 16 min
Bit rate : 55 b/s
Count of elements : 1040
Stream size : 31.1 KiB (0%)
Title : English (SRT)
Language : English
Default : No
Forced : No
Text #3
ID : 5
Format : UTF-8
Codec ID : S_TEXT/UTF8
Codec ID/Info : UTF-8 Plain Text
Duration : 1 h 17 min
Bit rate : 58 b/s
Count of elements : 1142
Stream size : 33.3 KiB (0%)
Title : English (SDH SRT)
Language : English
Default : No
Forced : No
Text #4
ID : 6
Format : PGS
Muxing mode : zlib
Codec ID : S_HDMV/PGS
Codec ID/Info : Picture based subtitle format used on BDs/HD-DVDs
Duration : 1 h 17 min
Bit rate : 35.8 kb/s
Count of elements : 2284
Stream size : 20.0 MiB (1%)
Title : English (SDH)
Language : English
Default : No
Forced : No
Text #5
ID : 7
Format : PGS
Muxing mode : zlib
Codec ID : S_HDMV/PGS
Codec ID/Info : Picture based subtitle format used on BDs/HD-DVDs
Duration : 1 h 21 min
Bit rate : 30.5 kb/s
Count of elements : 2050
Stream size : 17.8 MiB (1%)
Title : Spanish
Language : Spanish
Default : No
Forced : No
Menu
00:00:00.000 : :Chapter 01
00:06:11.996 : :Chapter 02
00:09:02.124 : :Chapter 03
00:12:21.282 : :Chapter 04
00:18:44.373 : :Chapter 05
00:24:21.626 : :Chapter 06
00:28:03.973 : :Chapter 07
00:31:29.804 : :Chapter 08
00:35:44.517 : :Chapter 09
00:37:39.715 : :Chapter 10
00:44:04.350 : :Chapter 11
00:52:43.743 : :Chapter 12
01:00:36.549 : :Chapter 13
01:05:14.994 : :Chapter 14
01:08:31.816 : :Chapter 15
01:16:16.947 : :Chapter 16
Релиз от: &
Автор релиза:
piratbit.org



Скачать Никому не говори через торрент https://i114.fastpic.ru/big/2021/0311/ff/e780d198c83a587a8962761ac2a406ff.png Скачать, смотреть онлайн Никому не говори бесплантно в хорошем качестве Описание: Братья Мэтт и Джои решают ограбить дом, чтобы помочь своей больной матери оплатить медицинские счета. Их замечает охранник ... 9.8 10 4
Торрент: Зарегистрирован [2021-03-11 12:42] · скачан: 125 раз
Статус: T временная
Размер: 1.39 GB
Как cкачать? Как скачать Никому не говори через торрент | UTorrent

28-11-2019 20:33  

Отключить всю рекламу на сайте

    Дорогой пользователь! Огромная просьба, поблагодарите релизера, оцените раздачу и оставьте свои комментарий, если Вы скачали Никому не говори через торрент бесплатно!
    Комментировать посты могут только пользователи прошедшие не сложную регистрацию
    Показать сообщения:    

    Никому не говори через торрент
    Скачать бесплатно Никому не говори
    Никому не говори скачать торрент
    Никому не говори смотреть онлайн
    Cкачать фильм Никому не говори бесплатно
    Никому не говори скачать торрент в хорошем качестве
    Никому не говори смотреть онлайн бесплатно в хорошем качестве


    Вы не можете начинать темы
    Вы не можете отвечать на сообщения
    Вы не можете редактировать свои сообщения
    Вы не можете удалять свои сообщения
    Вы не можете голосовать в опросах
    Вы не можете прикреплять файлы к сообщениям
    Вы можете скачивать файлы