1 сезон

3 сезон

iTunes

1

iTunes

DUB Netflix

iTunes

13

1 сезон

RePack

30

Deluxe

pack

Легкие деньги

ВАЖНО

ИГРА 18+

pack

RePack

MK11

RePack

jed

RePack

fifa19

RePack

RDR2

RePack

NEED FOR SPEED™ PAYBACK

4 сезон

9 сезон

Бесстыжие 9 сезон

Все сериалы

все сериалы на PB.wtf

RePack

FAR CRY 5

Anonymous, доброй ночи, мы не успеваем до 1 числа собрать деньги на оплату серверов, помогите нам пожалуйста в это трудное время. В качестве благодарности мы отключим Вам всю рекламу на сайте (укажите свой ник в строку Ваше имя)!

×
  
Magnet ссылка

Девушки с Макаровым / Сезон: 1 / Серии: 1-20 из 20 (Константин Смирнов) [2021, Комедия, HDTV 1080i] piratbit.org

Девушки с Макаровым через торрент piratbit.org

Раздают: 1 [ 12 KB/s ] Качают: 1 [ 0 KB/s ]
Размер: 19.33 GB | Добавлен: 2 мес. 10 д. назад | Торрент скачан:91 раз
Скачать  

17-03-2021 04:46 Девушки с Макаровым Скачать торрент  

Девушки с Макаровым
Год выпуска: 2021
Страна: Россия
Студия: Comedy Club Production
Жанр: Комедия
Продолжительность: ~ 00:25:00
Перевод: Не требуется
Субтитры: отсутствуют

Режиссер: Константин Смирнов (VI)



В ролях: Павел Майков, Алевтина Тукан, Валерия Астапова, Владислава Ермолаева, Елена Полянская, Олеся Судзиловская, Георгий Дронов, Сергей Астахов, Дмитрий Лысенков, Андрей Пынзару, Анна Невская, Олег Евтеев, Никита Абдулов, Руслан Ягудин

Описание: Желая подкинуть проблем Макарову, лучшему полицейскому московского района Бутово, новое начальство выделяет ему «подкрепление» – четырех бывших студенток: отличницу Анну Туркину, самбистку Сашу Попову, мать-одиночку Олесю Вербу и просто красавицу Катю Синицкую. По задумке начальства девушки должны ужаснуться характеру Макарова и настучать на грубияна, постоянно превышающего свои полномочия, а по задумке самого Макарова – уволиться после первого же дня, в который им пришлось выполнять самые нелепые поручения. Но что-то пошло не так. Новоиспеченные оперативницы серьезно от-неслись к работе и собрались ответственно нести службу с непростым наставником. Вместе брутальному Макарову и четверым дебютанткам предстоит блюсти порядок в неспокойном районе, раскрывать неочевидные дела, но при этом не забывать и про личную жизнь.

Качество: HDTV 1080i
Формат: TS

Видео: 1920х1080 (16:9), 25 fps, AVC MPEG-4 (x264), High@L4.0 ~ 5500 kbps avg, 0.148 bit/pixel
Аудио: 48 kHz, MPEG Layer 2, 2 ch, ~ 192 kbps avg
скриншот  скриншот  скриншот  скриншот  

Общее
Идентификатор : 1 (0x1)
Полное имя : C:\Devushki.s.makarovym.2021.HDTV.(1080i).ExKinoRay\Devushki.s.makarovym.E01.2021.HDTV.(1080i).ExKinoRay.ts
Формат : MPEG-TS
Размер файла : 1,01 Гбайт
Продолжительность : 24 м. 40 с.
Режим общего битрейта : Переменный
Общий поток : 5837 Кбит/сек

Видео
Идентификатор : 211 (0xD3)
Идентификатор меню : 2207 (0x89F)
Формат : AVC
Формат/Информация : Advanced Video Codec
Профиль формата : High@L4
Параметр CABAC формата : Да
Параметр RefFrames формата : 4 кадра
Идентификатор кодека : 27
Продолжительность : 24 м. 40 с.
Битрейт : 5354 Кбит/сек
Ширина : 1920 пикселей
Высота : 1080 пикселей
Соотношение сторон : 16:9
Частота кадров : 25,000 кадров/сек
Стандарт вещания : Component
Цветовое пространство : YUV
Субдискретизация насыщенности : 4:2:0
Битовая глубина : 8 бит
Тип развёртки : Чересстрочная
Метод сохранения типа развёртки : Раздельные поля
Порядок развёртки : Верхнее поле первое
Бит/(Пиксели*Кадры) : 0.103
Размер потока : 945 Мбайт (92%)
Цветовой диапазон : Limited
Основные цвета : BT.709
Характеристики трансфера : BT.709
Коэффициенты матрицы : BT.709

Аудио
Идентификатор : 221 (0xDD)
Идентификатор меню : 2207 (0x89F)
Формат : MPEG Audio
Версия формата : Version 1
Профиль формата : Layer 2
Идентификатор кодека : 3
Продолжительность : 24 м. 40 с.
Вид битрейта : Постоянный
Битрейт : 192 Кбит/сек
Каналы : 2 канала
Частота : 48,0 КГц
Метод сжатия : С потерями
Размер потока : 33,9 Мбайт (3%)
Язык : Russian

Когда раздача ведётся путём добавления новых серий, при каждом добавлении создётся новый торрент. Чтобы начать докачку новой серии, пользователям необходимо сделать следующее:
(1) остановить скачивание,
(2) удалить старый торрент у себя из клиента (старые серии удалять не надо),
(3) скачать новый торрент и запустить его у себя в клиенте вместо старого, при этом указать клиенту путь в старую папку, куда и должно происходить скачивание новых серий.
Ваш клиент при этом должен произвести хеширование (проверку) старой папки (если не производит сам - помогите ему сделать это), и будет докачивать только те серии, которых у вас ещё нет. Старые серии при этом не удаляются, а продолжают раздаваться!
Eсли вы уже удалили старые серии, то предотвратить повторную закачку старых серий можно, отжав галочку в соответсвующих местах при запуске нового торрента. По возможности, желательно не удалять старые серии как можно дольше, чтобы релизёр не столько продолжал раздавать старые серии, а смог сконцентрироваться на новых.

piratbit.org



Скачать Девушки с Макаровым через торрент https://img11.lostpic.net/2021/03/09/eec0e608b3d16e0097007b3a0264a35a.jpg Скачать фильм Девушки с Макаровым через торрент бесплантно в хорошем качестве Описание: Желая подкинуть проблем Макарову, лучшему полицейскому московского района Бутово, новое начальство выделяет ему «подкрепление» – ... 9.6 10 23
Торрент: Зарегистрирован [2021-04-09 04:27] · скачан: 91 раз
Статус: √ проверено
Размер: 19.33 GB
Как cкачать? Как скачать Девушки с Макаровым через торрент | UTorrent

% Раздел Тема Автор DL S | L
TNT serials [ 17.2 GB ] Девушки с Макаровым / Сезон: 1 / Серии: 1-20 из 20 [2021 WEBRip 1080p] bober100 Скачать
4 | 2
Наши сериалы [ 6.58 GB ] Девушки с Макаровым / Сезон: 1 / Серии: 1-20 из 20 [2021 WEBRip-AVC] bober100 Скачать
2 | 0
TNT serials [ 6.99 GB ] Девушки с Макаровым / Сезон: 1 / Серии: 1-20 из 20 [2021 SATRip] bober100 Скачать
4 | 0
TNT serials [ 7.3 GB ] Девушки с Макаровым / Сезон: 1 / Серии: 1-20 из 20 [2021 WEBRip] bober100 Скачать
1 | 0
TNT serials [ 11.69 GB ] Девушки с Макаровым / Сезон: 1 / Серии: 1-20 из 20 [2021 WEBRip 720p] bober100 Скачать
3 | 0

28-11-2019 20:33  

Отключить всю рекламу на сайте

    Дорогой пользователь! Огромная просьба, поблагодарите релизера, оцените раздачу и оставьте свои комментарий, если Вы скачали Девушки с Макаровым через торрент бесплатно! Внесите свою лепту в развитие PiratBit!
    Комментировать посты могут только пользователи прошедшие не сложную регистрацию
    Показать сообщения:    

    Девушки с Макаровым через торрент
    Скачать бесплатно Девушки с Макаровым
    Девушки с Макаровым скачать торрент
    Девушки с Макаровым смотреть онлайн
    Cкачать фильм Девушки с Макаровым бесплатно
    Девушки с Макаровым скачать торрент в хорошем качестве
    Девушки с Макаровым смотреть онлайн бесплатно в хорошем качестве


    Вы не можете начинать темы
    Вы не можете отвечать на сообщения
    Вы не можете редактировать свои сообщения
    Вы не можете удалять свои сообщения
    Вы не можете голосовать в опросах
    Вы не можете прикреплять файлы к сообщениям
    Вы можете скачивать файлы