1 сезон

1 сезон

iTunes

1

КиноПоиск HD

Кинопоиск HD

iTunes

13

1 сезон

RePack

30

Ultimate

ВАЖНО

ИГРА 18+

pack

RePack

MK11
pack

Легкие деньги

RePack

jed

RePack

fifa19

RePack

RDR2

RePack

NEED FOR SPEED™ PAYBACK

4 сезон

9 сезон

Бесстыжие 9 сезон

Все сериалы

все сериалы на PB.wtf

RePack

FAR CRY 5
  
Magnet ссылка

Повелитель драконов / Dragon Rider (Томер Ешед) [2020, Мультфильм, приключения, семейный, BDRip 720p] DUB (rus, ukr) [iTunes] piratbit.org

Повелитель драконов через торрент piratbit.org

Раздают: 5 [ 0 KB/s ]
Размер: 3.73 GB | Добавлен: 28 д. назад | Торрент скачан:78 раз
Скачать  

25-03-2021 16:39 Повелитель драконов Скачать торрент  

Повелитель драконов | Dragon Rider
Год выпуска: 2020
Страна: Германия
Студия: Constantin Film, Able & Baker, Cyborn
Жанр: Мультфильм, приключения, семейный
Продолжительность: 01:31:24
Перевод: Дублированный | iTunes
Субтитры: отсутствуют

Режиссер: Томер Ешед

rating

В ролях: Томас Сэнгстер, Фелисити Джонс, Фредди Хаймор, Патрик Стюарт, Нонсо Анози, Мира Сайал, Санджив Бхаскар, Стефен Хоган, Дэвид Брукс

Описание: Когда-то драконы властвовали на Земле, но в наши дни их можно встретить только в кино. Однако молодой дракон, пробираясь сквозь небоскребы мегаполисов и уклоняясь от взоров вечно спешащих людей, мечтает добраться до мест, где по легендам могучие рептилии живут в спокойствии и безопасности. Он просит о помощи одного незадачливого паренька, который, как и все мы, даже не подозревал, что драконы реальные и очень даже милые существа. Вместе они отправятся в путешествие по самым таинственным уголкам Земли, а юноше придется постараться, ведь спасти драконий род может только истинный повелитель драконов!

Качество: BDRip 720p
Формат: MKV

Видео: MPEG-4 AVC, 1280x536, 4444 Kbit/s, 23.976 fps
Аудио #01: 48 kHz, AC3, 5.1, 384 Kbps | Дублированный | RUS |
Аудио #02: 48 kHz, AC3, 5.1, 384 Kbps | Дублированный | UKR |
Аудио #03: 48 kHz, AC3, 5.1, 640 Kbps | Оригинал | ENG |
скриншот  скриншот  скриншот  скриншот  скриншот  

General
Unique ID : 146164176249853587247030659974211941100 (0x6DF63246328E96F9E0EED2BC9F15B2EC)
Complete name : F:VideoDragon.Rider.2020.BDRip.720p.seleZen.mkv
Format : Matroska
Format version : Version 4
File size : 3.73 GiB
Duration : 1 h 31 min
Overall bit rate : 5 844 kb/s
Movie name : Dragon Rider 2020 from seleZen
Encoded date : UTC 2021-03-25 06:08:32
Writing application : mkvmerge v55.0.0 ('Waiting For Space') 64-bit
Writing library : libebml v1.4.2 + libmatroska v1.6.4

Video
ID : 1
Format : AVC
Format/Info : Advanced Video Codec
Format profile : High@L4.1
Format settings : CABAC / 12 Ref Frames
Format settings, CABAC : Yes
Format settings, Reference : 12 frames
Codec ID : V_MPEG4/ISO/AVC
Duration : 1 h 31 min
Bit rate : 4 444 kb/s
Width : 1 280 pixels
Height : 536 pixels
Display aspect ratio : 2.40:1
Frame rate mode : Constant
Frame rate : 23.976 (24000/1001) FPS
Color space : YUV
Chroma subsampling : 4:2:0
Bit depth : 8 bits
Scan type : Progressive
Bits/(Pixel*Frame) : 0.270
Stream size : 2.83 GiB (76%)
Writing library : x264 core 161 -from seleZen
Encoding settings : cabac=1 / ref=12 / deblock=1:-2:-2 / analyse=0x3:0x113 / me=umh / subme=10 / psy=1 / psy_rd=1.08:0.08 / mixed_ref=1 / me_range=32 / chroma_me=1 / trellis=2 / 8x8dct=1 / cqm=0 / deadzone=21,11 / fast_pskip=0 / chroma_qp_offset=-3 / threads=17 / lookahead_threads=2 / sliced_threads=0 / nr=0 / decimate=0 / interlaced=0 / bluray_compat=0 / constrained_intra=0 / bframes=9 / b_pyramid=2 / b_adapt=2 / b_bias=0 / direct=3 / weightb=1 / open_gop=0 / weightp=2 / keyint=240 / keyint_min=23 / scenecut=40 / intra_refresh=0 / rc_lookahead=40 / rc=2pass / mbtree=0 / bitrate=4444 / ratetol=1.0 / qcomp=0.60 / qpmin=0 / qpmax=51 / qpstep=4 / cplxblur=20.0 / qblur=0.5 / vbv_maxrate=50000 / vbv_bufsize=62000 / nal_hrd=none / filler=0 / ip_ratio=1.40 / pb_ratio=1.30 / aq=3:0.80
Language : English
Default : Yes
Forced : No

Audio #1
ID : 2
Format : AC-3
Format/Info : Audio Coding 3
Commercial name : Dolby Digital
Codec ID : A_AC3
Duration : 1 h 31 min
Bit rate mode : Constant
Bit rate : 384 kb/s
Channel(s) : 6 channels
Channel layout : L R C LFE Ls Rs
Sampling rate : 48.0 kHz
Frame rate : 31.250 FPS (1536 SPF)
Compression mode : Lossy
Stream size : 251 MiB (7%)
Title : iTunes
Language : Russian
Service kind : Complete Main
Default : Yes
Forced : Yes

Audio #2
ID : 3
Format : AC-3
Format/Info : Audio Coding 3
Commercial name : Dolby Digital
Codec ID : A_AC3
Duration : 1 h 31 min
Bit rate mode : Constant
Bit rate : 384 kb/s
Channel(s) : 6 channels
Channel layout : L R C LFE Ls Rs
Sampling rate : 48.0 kHz
Frame rate : 31.250 FPS (1536 SPF)
Compression mode : Lossy
Stream size : 251 MiB (7%)
Title : iTunes
Language : Ukrainian
Service kind : Complete Main
Default : No
Forced : No

Audio #3
ID : 4
Format : AC-3
Format/Info : Audio Coding 3
Commercial name : Dolby Digital
Codec ID : A_AC3
Duration : 1 h 31 min
Bit rate mode : Constant
Bit rate : 640 kb/s
Channel(s) : 6 channels
Channel layout : L R C LFE Ls Rs
Sampling rate : 48.0 kHz
Frame rate : 31.250 FPS (1536 SPF)
Compression mode : Lossy
Stream size : 418 MiB (11%)
Title : Original
Language : English
Service kind : Complete Main
Default : No
Forced : No

Menu
00:00:00.000 : en:Глава 01
00:05:00.175 : en:Глава 02
00:10:01.559 : en:Глава 03
00:17:30.424 : en:Глава 04
00:22:46.574 : en:Глава 05
00:27:14.132 : en:Глава 06
00:34:10.840 : en:Глава 07
00:41:48.005 : en:Глава 08
00:46:18.109 : en:Глава 09
00:53:55.065 : en:Глава 10
01:01:47.287 : en:Глава 11
01:08:19.095 : en:Глава 12
01:14:47.066 : en:Глава 13
01:18:31.290 : en:Глава 14
01:24:46.873 : en:Глава 15

piratbit.org



Скачать Повелитель драконов через торрент https://b.radikal.ru/b36/2103/11/5b532884bad9.jpg Скачать фильм Повелитель драконов через торрент бесплантно в хорошем качестве Описание: Когда-то драконы властвовали на Земле, но в наши дни их можно встретить только в кино. Однако молодой дракон, пробираясь сквозь ... 10 10 7
Торрент: Зарегистрирован [2021-03-25 16:39] · скачан: 78 раз
Статус: √ проверено
Размер: 3.73 GB
Как cкачать? Как скачать Повелитель драконов через торрент | UTorrent

% Раздел Тема Автор DL S | L
Зарубежные Мультфильмы (BDRip 1080p, 720p, Blu-ray, BD-Remux) [ 6.57 GB ] Повелитель драконов / Dragon Rider [2020 Мультфильм BDRip 1080p] DUB bober100 Скачать
5 | 0
Иностранные мультфильмы [ 1.42 GB ] Повелитель драконов / Dragon Rider [2020 Мультфильм BDRip] - Twi7ter Скачать
9 | 0
Иностранные мультфильмы [ 1.46 GB ] Повелитель драконов / Dragon Rider [2020 Мультфильм WEB-DLRip] bober100 Скачать
6 | 0
Зарубежные Мультфильмы (WEB-DL 720p, 1080p) [ 3.38 GB ] Повелитель драконов / Dragon Rider [2020 Мультфильм WEB-DL 1080p] DUB bober100 Скачать
3 | 0

28-11-2019 20:33  

Отключить всю рекламу на сайте

    Дорогой пользователь! Огромная просьба, поблагодарите релизера, оцените раздачу и оставьте свои комментарий, если Вы скачали Повелитель драконов через торрент бесплатно! Внесите свою лепту в развитие PiratBit!
    Комментировать посты могут только пользователи прошедшие не сложную регистрацию
    Показать сообщения:    

    Повелитель драконов через торрент
    Скачать бесплатно Повелитель драконов
    Повелитель драконов скачать торрент
    Повелитель драконов смотреть онлайн
    Cкачать фильм Повелитель драконов бесплатно
    Повелитель драконов скачать торрент в хорошем качестве
    Повелитель драконов смотреть онлайн бесплатно в хорошем качестве


    Вы не можете начинать темы
    Вы не можете отвечать на сообщения
    Вы не можете редактировать свои сообщения
    Вы не можете удалять свои сообщения
    Вы не можете голосовать в опросах
    Вы не можете прикреплять файлы к сообщениям
    Вы можете скачивать файлы