1 сезон

1 сезон

iTunes

1

КиноПоиск HD

Кинопоиск HD

iTunes

13

1 сезон

RePack

30

Ultimate

ВАЖНО

ИГРА 18+

pack

RePack

MK11
pack

Легкие деньги

RePack

jed

RePack

fifa19

RePack

RDR2

RePack

NEED FOR SPEED™ PAYBACK

4 сезон

9 сезон

Бесстыжие 9 сезон

Все сериалы

все сериалы на PB.wtf

RePack

FAR CRY 5
  
Magnet ссылка

Обломки / Debris / Сезон: 1 / Серии 1-6 из 13 (Стив Эделсон, Падрейк МакКинли, Ребекка Родригес) [2021, США, Драма, Детектив, Фантастика, Триллер, WEB-DLRip-AVC] MVO [LostFilm] piratbit.org

Обломки через торрент piratbit.org

Раздают: 7 [ 85 KB/s ] Качают: 10 [ 0 KB/s ]
Размер: 4.13 GB | Добавлен: 2 д. 12 ч. назад | Торрент скачан:15 раз
Скачать  

27-03-2021 03:42 Обломки Скачать торрент  

Обломки / Debris


  • Год выпуска: 2021
  • Страна: США
  • Жанр: Драма, Детектив, Фантастика, Триллер
  • Продолжительность: ~ 00:45:00 (Серия)
  • Перевод: Профессиональный многоголосый [LostFilm]
  • Режиссер: Стив Эделсон, Падрейк МакКинли, Ребекка Родригес
  • В ролях:
    Джонатан Такер, Дженнифер Коппинг, Норберт Лео Батц, Тайрон Бенскин, Риэнн Стил, Томас Кадро, Алекс Богомолов, Армин Караме, Тодд Томсон, Стивен Адеколу и др.
    Описание:


    Когда с неба начали падать обломки объекта неизвестного происхождения, американские и британские спецслужбы организовали оперативную группу Орбитал, членам которой было поручено выяснить что же это такое, откуда они взялись и, самое главное, как эти фрагменты могут повлиять на землян. В состав секретной международной организации вошли и титульные герои — агент ЦРУ Брайан Беневенти (Jonathan_Tucker/Джонатан Такер) и сотрудница разведывательной службы Великобритании Финола Джонс (Riann_Steele/Риэнн Стил). Этим двоим придется несладко: мало того, что их методы разительно отличаются друг от друга, так еще и начальники спецслужб, кажется, скрывают что-то от своих оперативников… Героям, отправившимся на поиски обломков, каждый из которых оказывает непредсказуемое, мощное и зачастую опасное воздействие на обычных людей, не остается ничего другого, кроме как довериться друг другу и попытаться докопаться до истины.
  • Рейтинг:

    rating


  • Качество: WEB-DLRip-AVC
  • Формат: :MKV
  • Видео кодек: AVC
  • Аудио кодек: AC3
  • Видео: 1528 Кбит/сек, 1024*576 (16:9), в 23,976 (24000/1001) кадра/сек, AVC
  • Аудио №1: русский 384 Кбит/сек, 48,0 КГц, 16 бит, 2 канала, AC-3|[LostFilm]|
  • Аудио №2: английский 384 Кбит/сек, 48,0 КГц, 16 бит, 2 канала, AC-3
    «Обломки», новый научно-фантастический сериал телеканала NBC, готов порадовать фанатов «The_X-Files/Секретных материалов», изголодавшихся по страху перед внеземным и заговорам спецслужб, которые только тем и занимаются, что скрывают от гражданских правду. За созданием сериала стоит JH_Wyman/Джоэл Х. Уаймен, шоураннер остросюжетной драмы «Almost_Human/Почти человек» и мистического триллера «Fringe/За гранью», решивший вновь погрузить зрителей в эпицентр таинственных паранормальных событий. Каждую неделю главным героям в лице агентов секретной организации предстоит сталкиваться с необъяснимыми с точки зрения современной науки явлениями, вызванными упавшими с неба обломками неопознанного объекта. Телепортация и левитация, изменение климата и доппельгангеры, маленький мальчик, жертвы которого захлебываются кровавыми слезами… Заигрывая с конспирологическими теориями и интересом ко всему инопланетному, «Обломки» демонстрируют леденящие кровь образы, которые благодаря своей мучительной странности оказывают особое эмоциональное воздействие как на непосредственных участников событий, так и на наблюдателей по эту сторону экрана.
    Внимание! Раздача ведётся путём добавления новых серий; при каждом добавлении создаётся новый торрент. Чтобы начать докачку новой серии, пользователям необходимо сделать следующее:
    (1) остановить скачивание,
    (2) удалить старый торрент у себя из клиента (старые серии удалять не надо),
    (3) скачать новый торрент и запустить его у себя в клиенте вместо старого, при этом указать клиенту путь в старую папку куда и должно происходить скачивание новых серий.

    Ваш клиент при этом должен произвести хеширование (проверку) старой папки (если не производит сам - помогите ему сделать это), и будет докачивать только те серии которых у вас ещё нет. Старые серии при этом не удаляются, а продолжают раздаваться!

    Eсли вы уже удалили старые серии, то предотвратить повторную закачку старых серий можно, отжав галочку в соответствующих местах при запуске нового торрента. По возможности, желательно не удалять старые серии как можно дольше чтобы релизёр не столько продолжал раздавать старые серии, а смог сконцентрироваться на новых.
    Общее
    Уникальный идентификатор : 139130676739232142449766240619910013692 (0x68AB97F98B5B5299FAF0CF236D5A22FC)
    Полное имя : J:\Обломки (Debris) Сезон 1\Debris.S01E01.(Пилот).WEB-DLRip-AVC.LostFilm.mkv
    Формат : Matroska
    Версия формата : Version 4
    Размер файла : 717 Мбайт
    Продолжительность : 42 м. 47 с.
    Общий поток : 2342 Кбит/сек
    Программа кодирования : XviD4PSP 8.0.59
    Библиотека кодирования : Lavf58.20.100
    ErrorDetectionType : Per level 1
    ENCODING_INFO : MATROSKA,WEBM > MKV Пользовательский

    Видео
    Идентификатор : 1
    Формат : AVC
    Формат/Информация : Advanced Video Codec
    Профиль формата : High@L3.1
    Настройки формата : CABAC / 4 Ref Frames
    Параметр CABAC формата : Да
    Параметр RefFrames формата : 4 кадра
    Идентификатор кодека : V_MPEG4/ISO/AVC
    Продолжительность : 42 м. 47 с.
    Битрейт : 1528 Кбит/сек
    Номинальный битрейт : 1800 Кбит/сек
    Ширина : 1024 пикселя
    Высота : 576 пикселей
    Соотношение сторон : 16:9
    Режим частоты кадров : Постоянный
    Частота кадров : 23,976 (24000/1001) кадра/сек
    Цветовое пространство : YUV
    Субдискретизация насыщенности : 4:2:0
    Битовая глубина : 8 бит
    Тип развёртки : Прогрессивная
    Бит/(Пиксели*Кадры) : 0.108
    Размер потока : 468 Мбайт (65%)
    Библиотека кодирования : x264 core 157 r2969 d4099dd
    Настройки программы : cabac=1 / ref=3 / deblock=1:-1:-1 / analyse=0x3:0x133 / me=hex / subme=7 / psy=1 / psy_rd=1.00:0.20 / mixed_ref=1 / me_range=16 / chroma_me=1 / trellis=1 / 8x8dct=1 / cqm=0 / deadzone=21,11 / fast_pskip=1 / chroma_qp_offset=-3 / threads=9 / lookahead_threads=1 / sliced_threads=0 / nr=0 / decimate=1 / interlaced=0 / bluray_compat=0 / constrained_intra=0 / bframes=3 / b_pyramid=2 / b_adapt=2 / b_bias=0 / direct=3 / weightb=1 / open_gop=0 / weightp=2 / keyint=240 / keyint_min=24 / scenecut=40 / intra_refresh=0 / rc_lookahead=40 / rc=cbr / mbtree=1 / bitrate=1800 / ratetol=1.0 / qcomp=0.60 / qpmin=0 / qpmax=69 / qpstep=4 / vbv_maxrate=1800 / vbv_bufsize=1285 / nal_hrd=none / filler=0 / ip_ratio=1.40 / aq=1:1.00
    Default : Да
    Forced : Нет
    ENCODING_INFO : H264 > X264 CBR 1800kbps HQ

    Аудио #1
    Идентификатор : 2
    Формат : AC-3
    Формат/Информация : Audio Coding 3
    Коммерческое название : Dolby Digital
    Идентификатор кодека : A_AC3
    Продолжительность : 42 м. 47 с.
    Вид битрейта : Постоянный
    Битрейт : 384 Кбит/сек
    Каналы : 2 канала
    ChannelLayout : L R
    Частота : 48,0 КГц
    Частота кадров : 31,250 кадров/сек (1536 SPF)
    Битовая глубина : 16 бит
    Метод сжатия : С потерями
    Размер потока : 118 Мбайт (16%)
    ServiceKind/String : Complete Main
    Default : Да
    Forced : Нет
    ENCODING_INFO : AC3 > AC3 CBR 384kbps

    Аудио #2
    Идентификатор : 3
    Формат : AC-3
    Формат/Информация : Audio Coding 3
    Коммерческое название : Dolby Digital
    Идентификатор кодека : A_AC3
    Продолжительность : 42 м. 47 с.
    Вид битрейта : Постоянный
    Битрейт : 384 Кбит/сек
    Каналы : 2 канала
    ChannelLayout : L R
    Частота : 48,0 КГц
    Частота кадров : 31,250 кадров/сек (1536 SPF)
    Битовая глубина : 16 бит
    Метод сжатия : С потерями
    Размер потока : 118 Мбайт (16%)
    ServiceKind/String : Complete Main
    Default : Нет
    Forced : Нет
    ENCODING_INFO : AC3 > AC3 CBR 384kbps



    Скриншоты:
    скриншот   скриншот   скриншот   скриншот   скриншот   скриншот   скриншот   
    скриншот  
    piratbit.org



  • Скачать Обломки через торрент https://pic1.kartinco.top/new/img/2021-03/27/1knyk0y9v2ky582mi2cl0a3le.jpg Скачать фильм Обломки через торрент бесплантно в хорошем качестве Описание: Когда с неба начали падать обломки объекта неизвестного происхождения, американские и британские спецслужбы организовали ... 10 10 5
    Торрент: Зарегистрирован [2021-04-07 23:01] · скачан: 15 раз
    Статус: √ проверено
    Размер: 4.13 GB
    Как cкачать? Как скачать Обломки через торрент | UTorrent



    Последний раз редактировалось: GEKADOL (2021-04-07 23:01), всего редактировалось 2 раз(а)

    28-11-2019 20:33  

    Отключить всю рекламу на сайте

    27-03-2021 04:37 Обломки Скачать торрент  

    после второй серии чуть не забросил просмотр, слава б-гу с третьей серик чуть оживилсяpiratbit.org



    27-03-2021 05:00 Обломки Скачать торрент  

    tamburetko писал(а):

    после второй серии чуть не забросил просмотр, слава б-гу с третьей серик чуть оживился

    походу я уже три серии пропустил))piratbit.org



      Дорогой пользователь! Огромная просьба, поблагодарите релизера, оцените раздачу и оставьте свои комментарий, если Вы скачали Обломки через торрент бесплатно! Внесите свою лепту в развитие PiratBit!
      Комментировать посты могут только пользователи прошедшие не сложную регистрацию
      Показать сообщения:    

      Обломки через торрент
      Скачать бесплатно Обломки
      Обломки скачать торрент
      Обломки смотреть онлайн
      Cкачать фильм Обломки бесплатно
      Обломки скачать торрент в хорошем качестве
      Обломки смотреть онлайн бесплатно в хорошем качестве


      Вы не можете начинать темы
      Вы не можете отвечать на сообщения
      Вы не можете редактировать свои сообщения
      Вы не можете удалять свои сообщения
      Вы не можете голосовать в опросах
      Вы не можете прикреплять файлы к сообщениям
      Вы можете скачивать файлы