1 сезон

1 сезон

iTunes

1

КиноПоиск HD

Кинопоиск HD

iTunes

13

1 сезон

RePack

30

Ultimate

ВАЖНО

ИГРА 18+

pack

RePack

MK11
pack

Легкие деньги

RePack

jed

RePack

fifa19

RePack

RDR2

RePack

NEED FOR SPEED™ PAYBACK

4 сезон

9 сезон

Бесстыжие 9 сезон

Все сериалы

все сериалы на PB.wtf

RePack

FAR CRY 5
  
Magnet ссылка

Колдун / Shi shen ling / The Yinyang Master (Ли Вэйжань) [2021, боевик, фэнтези, WEBRip-AVC] MVO [MUZOVOZ] от MediaBit piratbit.org

Колдун через торрент piratbit.org

Раздают: 2 [ 0 KB/s ]
Размер: 2.05 GB | Добавлен: 24 д. назад | Торрент скачан:67 раз
Скачать  

29-03-2021 19:16 Колдун Скачать торрент  


Колдун / Shi shen ling / The Yinyang Master
Информация о фильме:
Название: Колдун
Оригинальное название: Shi shen ling / The Yinyang Master
Год выхода: 2021
Жанр: боевик, фэнтези
Режиссер: Ли Вэйжань

В ролях: Чэнь Кунь, Чжоу Сюнь, Уильям Чань, Цюй Чусяо, Ван Ликунь, Ван Цзысюань, Шэнь Юэ, Чжан Цзыфэн, Сунь Хунлэй

Описание: Чиновника Юань Боя, перевозившего с конвоем груз ценностей, ограбила компания монстров под предводительством получеловека-полумонстра Цинмина. Того самого бывшего служащего Бюро ин-янь, семь лет назад обвинённого в попытке кражи Шкального камня и убийстве коллеги, и из-за этого теперь находящегося в бегах. Взяв в проводницы девушку Шэньле, Боя отправляется в мир монстров, чтобы отыскать вора, а в это время злоумышленники похищают Шкальный камень, но волшебный артефакт проглатывает хорёк — один из фамильяров Цинмина.



Страна: Китай
Студия: Beijing Phenom Films, Bud Vision, Magnon Studio, MoreVFX Beijing, Tau Films
Продолжительность: 02:00:26
Перевод: Любительский (многоголосый, закадровый) - MUZOVOZ



Информация о файле:
Кодек: AVC
Формат: MKV
Качество: WEBRip-AVC
Видео: MPEG-4 AVC, 1024x428, 24.000 fps, 1795 kbps
Аудио RU: AC3, 2 ch, 48 kHz, 192 kbps
Аудио EN: AC3, 6 ch, 48 kHz, 448 kbps
Субтитры: Русские, английские
Навигация по главам: Нет

x264 info: frame I:1702 Avg QP:14.49 size: 73286
x264 info: frame P:44212 Avg QP:18.63 size: 20259
x264 info: frame B:127510 Avg QP:21.96 size: 4763
General
Unique ID : 183372916655578211842658082993202318051 (0x89F456D06A3C79E97142357A0954CAE3)
Complete name : D:uTorrentРипы_от_wolf1245_MediaBitShi shen ling.The Yinyang Master.2021.MVO.WEBRip-AVC_wolf1245_MediaBit.mkv
Format : Matroska
Format version : Version 4
File size : 2.05 GiB
Duration : 2 h 0 min
Overall bit rate : 2 437 kb/s
Movie name : Shi shen ling.The Yinyang Master.2021.MVO.WEBRip-AVC_wolf1245_MediaBit
Encoded date : UTC 2021-03-29 19:01:53
Writing application : mkvmerge v55.0.0 ('Waiting For Space') 64-bit
Writing library : libebml v1.4.2 + libmatroska v1.6.4
Video
ID : 1
Format : AVC
Format/Info : Advanced Video Codec
Format profile : High@L4.1
Format settings : CABAC / 12 Ref Frames
Format settings, CABAC : Yes
Format settings, Reference frames : 12 frames
Codec ID : V_MPEG4/ISO/AVC
Duration : 2 h 0 min
Bit rate : 1 795 kb/s
Width : 1 024 pixels
Height : 428 pixels
Display aspect ratio : 2.40:1
Frame rate mode : Constant
Frame rate : 24.000 FPS
Color space : YUV
Chroma subsampling : 4:2:0
Bit depth : 8 bits
Scan type : Progressive
Bits/(Pixel*Frame) : 0.171
Stream size : 1.51 GiB (74%)
Title : _wolf1245_MediaBit
Writing library : x264 core 157 r2958 57baac4
Encoding settings : cabac=1 / ref=12 / deblock=1:0:0 / analyse=0x3:0x133 / me=umh / subme=10 / psy=1 / psy_rd=1.00:0.00 / mixed_ref=1 / me_range=32 / chroma_me=1 / trellis=2 / 8x8dct=1 / cqm=0 / deadzone=21,11 / fast_pskip=1 / chroma_qp_offset=-2 / threads=10 / lookahead_threads=1 / sliced_threads=0 / nr=0 / decimate=1 / interlaced=0 / bluray_compat=0 / constrained_intra=0 / bframes=9 / b_pyramid=2 / b_adapt=2 / b_bias=0 / direct=3 / weightb=1 / open_gop=0 / weightp=2 / keyint=240 / keyint_min=24 / scenecut=40 / intra_refresh=0 / rc_lookahead=60 / rc=2pass / mbtree=1 / bitrate=1795 / ratetol=1.0 / qcomp=0.60 / qpmin=0 / qpmax=69 / qpstep=4 / cplxblur=20.0 / qblur=0.5 / vbv_maxrate=50000 / vbv_bufsize=62500 / nal_hrd=none / filler=0 / ip_ratio=1.40 / aq=1:0.70
Language : Chinese
Default : Yes
Forced : No
Audio #1
ID : 2
Format : AC-3
Format/Info : Audio Coding 3
Commercial name : Dolby Digital
Codec ID : A_AC3
Duration : 2 h 0 min
Bit rate mode : Constant
Bit rate : 192 kb/s
Channel(s) : 2 channels
Channel layout : L R
Sampling rate : 48.0 kHz
Frame rate : 31.250 FPS (1536 SPF)
Bit depth : 32 bits
Compression mode : Lossy
Stream size : 165 MiB (8%)
Title : MVO | MUZOVOZ
Language : Russian
Service kind : Complete Main
Default : Yes
Forced : No
Audio #2
ID : 3
Format : AC-3
Format/Info : Audio Coding 3
Commercial name : Dolby Digital
Codec ID : A_AC3
Duration : 2 h 0 min
Bit rate mode : Constant
Bit rate : 448 kb/s
Channel(s) : 6 channels
Channel layout : L R C LFE Ls Rs
Sampling rate : 48.0 kHz
Frame rate : 31.250 FPS (1536 SPF)
Bit depth : 32 bits
Compression mode : Lossy
Stream size : 386 MiB (18%)
Title : Original
Language : English
Service kind : Complete Main
Default : No
Forced : No
Text #1
ID : 4
Format : UTF-8
Codec ID : S_TEXT/UTF8
Codec ID/Info : UTF-8 Plain Text
Duration : 1 h 58 min
Bit rate : 60 b/s
Count of elements : 1316
Stream size : 52.4 KiB (0%)
Language : Russian
Default : No
Forced : No
Text #2
ID : 5
Format : UTF-8
Codec ID : S_TEXT/UTF8
Codec ID/Info : UTF-8 Plain Text
Duration : 1 h 58 min
Bit rate : 38 b/s
Count of elements : 1314
Stream size : 33.8 KiB (0%)
Language : English
Default : No
Forced : No
Релиз от: &
Автор релиза:
piratbit.org



Скачать Колдун через торрент https://a.radikal.ru/a21/2103/65/260ab514142e.png Скачать фильм Колдун через торрент бесплантно в хорошем качестве Описание: Чиновника Юань Боя, перевозившего с конвоем груз ценностей, ограбила компания монстров под предводительством ... 10 10 2
Торрент: Зарегистрирован [2021-03-29 19:16] · скачан: 67 раз
Статус: √ проверено
Размер: 2.05 GB
Как cкачать? Как скачать Колдун через торрент | UTorrent

28-11-2019 20:33  

Отключить всю рекламу на сайте

    Дорогой пользователь! Огромная просьба, поблагодарите релизера, оцените раздачу и оставьте свои комментарий, если Вы скачали Колдун через торрент бесплатно! Внесите свою лепту в развитие PiratBit!
    Комментировать посты могут только пользователи прошедшие не сложную регистрацию
    Показать сообщения:    

    Колдун через торрент
    Скачать бесплатно Колдун
    Колдун скачать торрент
    Колдун смотреть онлайн
    Cкачать фильм Колдун бесплатно
    Колдун скачать торрент в хорошем качестве
    Колдун смотреть онлайн бесплатно в хорошем качестве


    Вы не можете начинать темы
    Вы не можете отвечать на сообщения
    Вы не можете редактировать свои сообщения
    Вы не можете удалять свои сообщения
    Вы не можете голосовать в опросах
    Вы не можете прикреплять файлы к сообщениям
    Вы можете скачивать файлы