Достать ножи: Стеклянная луковица

MVO

Добыча

Дубляж

Уэнсдэй

1 сезон

Тор

Дубляж

13 клиническая

1 сезон

Жестокая ночь

MVO

Одни из нас

1 сезон

Deluxe

pack

Рекомендуем

30

Пиратка

ВАЖНО

ВАЖНО

Ghostwire

Пиратка

jed

RePack

nioh2

RePack

RDR2

RePack

NEED FOR SPEED™ PAYBACK

RePack

скачать торрент

Кинопоиск HD

Острые козырьки 6 сезон

6 сезон

FAR CRY 6

RePack

скачать торрент

Лицензия

скачать торрент

MVO

1

1 сезон

скачать торрент

1 сезон

скачать торрент

Лицензия

  

Десять заповедей / The Ten Commandments (Сесил Б. ДеМилль) [1956, драма, приключения, UHD BDRemux 2160p] [2хMVO] (SomeWax,DVD Магия)

Десять заповедей через торрент piratbit.org

Размер: 83.45 GB | Добавлен: 1 год 9 мес. назад | Торрент скачан:9 раз
Смотреть онлайн | Скачать | Поддержите нас   

30-03-2021 10:58 Десять заповедей Скачать торрент  

Десять заповедей / The Ten Commandments
Год выпуска: 1956
Страна: США
Жанр: драма, приключения
Продолжительность: 03:51:38
Перевод: Профессиональный (многоголосый закадровый) SomeWax
Перевод 2: Профессиональный (многоголосый закадровый) DVD Магия
Субтитры: русские, английские

Режиссер: Сесил Б. ДеМилль

В ролях: Чарлтон Хестон, Юл Бриннер, Энн Бакстер, Эдвард Г. Робинсон, Ивонн Де Карло, Дебра Пейджит, Джон Дерек, Седрик Хардвик, Нина Фош, Марта Скотт

Описание: Суперзрелищный и высокобюджетный исторический фильм, повествующий о знаменитом библейском персонаже Моисее, о его рождении, возмужании и культовом исходе евреев из Египта… Моисей, рожденный среди иудеев, рабов Египта, младенцем попадает в царский дворец, где его выдает за своего ребенка овдовевшая сестра фараона. В тот день фараон как раз издал приказ, что бы все иудейские младенцы мужского пола были уничтожены, т.к. предсказание о рождении «избавителя» от рабства приходилось именно на это время. Вот тогда и пустила по Нилу корзинку с новорожденным мать Моисея, вкладывая сына в руки Господа. Моисей вырос, стал достойным трона царевичем, и тут выясняется его рабское происхождение... Моисей впоследствии отказался от привилегированной жизни и повел свой народ к свободе. C той поры, в память освобождения от рабства, иудеи отмечают праздник пасхи.



Сэмпл: http://sendfile.su/1601271

Качество: UHD BDRemux 2160p
Формат: MKV
Видео: HEVC/H.265, 3840x2160 (16:9), ~41.4 Mbps
Аудио 1: AC3, 6 ch, 384 kbps - SomeWax
Аудио 2: AC3, 2 ch, 192 kbps - DVD Магия
Аудио 3: DTS, 6 ch, 3320 kbps - английский
Аудио 4: AC3, 2 ch, 224 kbps - Commentary by Katherine Orrison
Общее
Уникальный идентификатор : 9519998081112660095340681539158338423 (0x7297C24DD0E6B109C040A2275ACEB77)
Полное имя : D:\The.Ten.Commandments.1956.UHD.BluRay.2160p.DTS-HD.MA.5.1.HEVC.REMUX.SHD13.mkv
Формат : Matroska
Версия формата : Version 4
Размер файла : 83,5 Гбайт
Продолжительность : 3 ч. 51 м.
Режим общего битрейта : Переменный
Общий поток : 51,6 Мбит/сек
Название фильма : The.Ten.Commandments.1956.UHD.BluRay.2160p.DTS-HD.MA.5.1.HEVC.REMUX.SHD13
Дата кодирования : UTC 2021-03-22 19:34:58
Программа кодирования : mkvmerge v51.0.0 ('I Wish') 64-bit
Библиотека кодирования : libebml v1.4.0 + libmatroska v1.6.2
Обложка : Yes
Attachments : cover.png

Видео
Идентификатор : 1
Формат : HEVC
Формат/Информация : High Efficiency Video Coding
Профиль формата : Main 10@L5.1@High
HDR format : SMPTE ST 2086, HDR10 compatible
Идентификатор кодека : V_MPEGH/ISO/HEVC
Продолжительность : 3 ч. 51 м.
Битрейт : 47,4 Мбит/сек
Ширина : 3 840 пикселей
Высота : 2 160 пикселей
Соотношение сторон : 16:9
Режим частоты кадров : Постоянный
Частота кадров : 23,976 (24000/1001) кадра/сек
Цветовое пространство : YUV
Субдискретизация насыщенности : 4:2:0 (Type 2)
Битовая глубина : 10 бит
Бит/(Пиксели*Кадры) : 0.238
Размер потока : 76,7 Гбайт (92%)
Заголовок : The.Ten.Commandments.1956.UHD.BluRay.2160p.DTS-HD.MA.5.1.HEVC.REMUX.SHD13
Default : Да
Forced : Нет
Цветовой диапазон : Limited
Основные цвета : BT.2020
Характеристики трансфера : PQ
Коэффициенты матрицы : BT.2020 non-constant
Mastering display color primaries : Display P3
Mastering display luminance : min: 0.0050 cd/m2, max: 4000 cd/m2
Maximum Content Light Level : 1281 cd/m2
Maximum Frame-Average Light Level : 148 cd/m2

Аудио #1
Идентификатор : 2
Формат : AC-3
Формат/Информация : Audio Coding 3
Коммерческое название : Dolby Digital
Идентификатор кодека : A_AC3
Продолжительность : 3 ч. 51 м.
Вид битрейта : Постоянный
Битрейт : 384 Кбит/сек
Каналы : 6 каналов
Channel layout : L R C LFE Ls Rs
Частота : 48,0 КГц
Частота кадров : 31,250 кадров/сек (1536 SPF)
Метод сжатия : С потерями
Размер потока : 636 Мбайт (1%)
Заголовок : MVO_ SomeWax
Язык : Russian
Service kind : Complete Main
Default : Да
Forced : Нет

Аудио #2
Идентификатор : 3
Формат : AC-3
Формат/Информация : Audio Coding 3
Коммерческое название : Dolby Digital
Идентификатор кодека : A_AC3
Продолжительность : 3 ч. 51 м.
Вид битрейта : Постоянный
Битрейт : 192 Кбит/сек
Каналы : 2 канала
Channel layout : L R
Частота : 48,0 КГц
Частота кадров : 31,250 кадров/сек (1536 SPF)
Метод сжатия : С потерями
Размер потока : 318 Мбайт (0%)
Заголовок : MVO_ DVD Магия
Язык : Russian
Service kind : Complete Main
Default : Нет
Forced : Нет

Аудио #3
Идентификатор : 4
Формат : DTS XLL
Формат/Информация : Digital Theater Systems
Коммерческое название : DTS-HD Master Audio
Идентификатор кодека : A_DTS
Продолжительность : 3 ч. 51 м.
Вид битрейта : Переменный
Битрейт : 3 320 Кбит/сек
Каналы : 6 каналов
Channel layout : C L R Ls Rs LFE
Частота : 48,0 КГц
Частота кадров : 93,750 кадра/сек (512 SPF)
Битовая глубина : 24 бит
Метод сжатия : Без потерь
Размер потока : 5,37 Гбайт (6%)
Заголовок : Оригинал
Язык : English
Default : Нет
Forced : Нет

Аудио #4
Идентификатор : 5
Формат : AC-3
Формат/Информация : Audio Coding 3
Коммерческое название : Dolby Digital
Идентификатор кодека : A_AC3
Продолжительность : 3 ч. 51 м.
Вид битрейта : Постоянный
Битрейт : 224 Кбит/сек
Каналы : 2 канала
Channel layout : L R
Частота : 48,0 КГц
Частота кадров : 31,250 кадров/сек (1536 SPF)
Метод сжатия : С потерями
Размер потока : 371 Мбайт (0%)
Заголовок : Commentary by Katherine Orrison
Язык : English
Service kind : Complete Main
Default : Нет
Forced : Нет

Текст #1
Идентификатор : 6
Формат : UTF-8
Идентификатор кодека : S_TEXT/UTF8
Идентификатор кодека/Информация : UTF-8 Plain Text
Продолжительность : 3 ч. 44 м.
Битрейт : 83 бит/сек
Count of elements : 2496
Размер потока : 138 Кбайт (0%)
Заголовок : DVD Магия
Язык : Russian
Default : Да
Forced : Нет

Текст #2
Идентификатор : 7
Формат : UTF-8
Идентификатор кодека : S_TEXT/UTF8
Идентификатор кодека/Информация : UTF-8 Plain Text
Продолжительность : 3 ч. 43 м.
Битрейт : 54 бит/сек
Count of elements : 2527
Размер потока : 89,6 Кбайт (0%)
Язык : English
Default : Нет
Forced : Нет

Текст #3
Идентификатор : 8
Формат : PGS
Режим смешивания : zlib
Идентификатор кодека : S_HDMV/PGS
Идентификатор кодека/Информация : Picture based subtitle format used on BDs/HD-DVDs
Продолжительность : 3 ч. 43 м.
Битрейт : 38,3 Кбит/сек
Count of elements : 5312
Размер потока : 61,3 Мбайт (0%)
Язык : English
Default : Нет
Forced : Нет

Текст #4
Идентификатор : 9
Формат : PGS
Режим смешивания : zlib
Идентификатор кодека : S_HDMV/PGS
Идентификатор кодека/Информация : Picture based subtitle format used on BDs/HD-DVDs
Продолжительность : 3 ч. 43 м.
Битрейт : 41,2 Кбит/сек
Count of elements : 5739
Размер потока : 65,9 Мбайт (0%)
Заголовок : SDH
Язык : English
Default : Нет
Forced : Нет

Текст #5
Идентификатор : 10
Формат : PGS
Режим смешивания : zlib
Идентификатор кодека : S_HDMV/PGS
Идентификатор кодека/Информация : Picture based subtitle format used on BDs/HD-DVDs
Продолжительность : 3 ч. 44 м.
Битрейт : 69,5 Кбит/сек
Count of elements : 7100
Размер потока : 112 Мбайт (0%)
Заголовок : (Commentary)
Язык : English
Default : Нет
Forced : Нет

Меню
00:00:00.000 : en:Overture
00:01:40.267 : en:Prologue
00:04:04.911 : en:Main Title
00:09:44.501 : en:Rameses The First
00:12:55.233 : en:Drifting Basket
00:17:05.066 : en:Prince Of Egypt
00:20:20.803 : en:Moses The Conqueror
00:25:57.890 : en:Throne Princess
00:27:29.648 : en:Goshen
00:30:48.889 : en:The Keystone
00:36:17.175 : en:Temple Granaries
00:38:17.545 : en:Hounds And Jackals
00:43:46.582 : en:Treasure City
00:49:26.547 : en:Hebrew Cloth
00:59:29.733 : en:The Binding Tie
01:07:28.544 : en:Brick Pits
01:15:25.938 : en:Royal Barge
01:18:42.635 : en:Master Butcher
01:27:31.580 : en:Pharaoh's Justice
01:38:42.667 : en:Dathan's Bribe
01:41:58.696 : en:Robe And Staff
01:44:09.785 : en:The Wilderness Of Shur
01:47:27.858 : en:Well Of Midian
01:53:08.865 : en:Mountain Of God
01:56:30.150 : en:Jethro's Daughters
01:59:40.632 : en:Moses Chooses Sephora
02:02:49.445 : en:Sethi's Death
02:05:54.630 : en:A Man Among The Sheep
02:08:43.758 : en:Burning Bush
02:15:49.725 : en:Entr' Acte
02:18:05.360 : en:Return Into Egypt
02:23:21.092 : en:Bricks Without Straw
02:25:09.576 : en:Bound To A Shepherd Girl
02:29:49.397 : en:Plagues On Egypt
02:37:17.345 : en:Death To The Firstborn
02:44:32.196 : en:Lamb's Blood
02:46:48.415 : en:Passover
02:55:14.045 : en:Set Free
02:58:59.729 : en:Exodus
03:10:00.889 : en:Hardened Heart
03:14:23.694 : en:Pharaoh's Chariots
03:19:28.123 : en:Parting Of The Red Sea
03:29:06.117 : en:Mount Sinai
03:32:01.459 : en:Finger Of God
03:37:55.229 : en:Idolaters
03:40:34.930 : en:The Lord's Side
03:43:05.747 : en:Go, Proclaim Liberty!
03:46:52.432 : en:Exit Music[/pre]
скриншот  скриншот  скриншот  скриншот  



Скачать Десять заповедей через торрент https://st-kp-yandex-net.translate.goog/images/film_iphone/iphone360_8271.jpg Скачать, смотреть онлайн Десять заповедей бесплантно в хорошем качестве Описание: Суперзрелищный и высокобюджетный исторический фильм, повествующий о знаменитом библейском персонаже Моисее, о его рождении, ... 10 10 2
Info! Золотая раздача, скачанное не засчитывается.
Торрент: Зарегистрирован [2021-03-30 10:58] · скачан: 9 раз
Статус: √ проверено
Размер: 83.45 GB
Как cкачать? Как скачать Десять заповедей через торрент | UTorrent

28-11-2019 20:33  


Отключить вcю реклaмy на сайте, в т.ч. и в плеере онлайн просмотра!

    Дорогой пользователь! Огромная просьба, поблагодарите релизера, оцените раздачу и оставьте свои комментарий, если Вы скачали Десять заповедей через торрент бесплатно!!
    Комментировать посты могут только пользователи прошедшие не сложную регистрацию
    Показать сообщения:    


    Десять заповедей через торрент
    Скачать бесплатно Десять заповедей
    Десять заповедей скачать торрент
    Десять заповедей смотреть онлайн
    Cкачать фильм Десять заповедей бесплатно
    Десять заповедей скачать торрент в хорошем качестве
    Десять заповедей смотреть онлайн бесплатно в хорошем качестве
    Вы не можете начинать темы
    Вы не можете отвечать на сообщения
    Вы не можете редактировать свои сообщения
    Вы не можете удалять свои сообщения
    Вы не можете голосовать в опросах
    Вы не можете прикреплять файлы к сообщениям
    Вы можете скачивать файлы
    Десять заповедей / The Ten Commandments [1956, драма, приключения, UHD BDRemux 2160p] [2хMVO] смотреть онлайн, скачать торрент picoco.icu