1 сезон

1 сезон

iTunes

1

КиноПоиск HD

Кинопоиск HD

iTunes

13

1 сезон

RePack

30

Новинка

ВАЖНО

ИГРА 18+

pack

RePack

MK11
pack

Легкие деньги

RePack

jed

RePack

fifa19

RePack

RDR2

RePack

NEED FOR SPEED™ PAYBACK

4 сезон

9 сезон

Бесстыжие 9 сезон

Все сериалы

все сериалы на PB.wtf

RePack

FAR CRY 5
  
Magnet ссылка

Папик / Сезон: 2 / Серии: 1-16 из 16 (Андрей Яковлев (I)) [2021, Комедия, WEB-DLRip] piratbit.org

Папик через торрент piratbit.org

Раздают: 30 [ 4 MB/s ] Качают: 19 [ 0 KB/s ]
Размер: 7.04 GB | Добавлен: 12 ч. назад | Торрент скачан:20 раз
Скачать  

31-03-2021 22:51 Папик Скачать торрент  

Папик
Год выпуска: 2021
Страна: Украина
Студия: Студия Квартал 95
Жанр: Комедия
Продолжительность: ~ 00:30:00

Режиссер: Андрей Яковлев (I)



В ролях:
Станислав Боклан, Дарья Петрожицкая, Сергей Сипливый, Олеся Жураковская, Екатерина Кистень, Вера Кобзарь, Вячеслав Гиндин, Михаил Кукуюк, Эльдар Кабиров, Максим Максимюк, Ярослав Чорненький, Борис Книженко, Алексей Череватенко, Анастасия Чепелюк, Олеся Гаевая, Дарья Рыбак, Евгения Мякенькая, Марина Дьяконенко, Наталья Кленина, Сергей Деньга, Леся Самаева

Описание:
В продолжении истории актёр на пенсии Александр Меркулов снова пытается начать новую жизнь. Только теперь не со смены имиджа, а с выхода из тюрьмы. Ведь дольче вита в чужом особняке с гламурной охотницей за «папиками» Лизой обернулась заключением в камере. Тем временем Лиза после удачного выступления в телешоу попадает в поп-группу и уезжает в первое турне. Хотя главных героев и развела судьба, они продолжают спасать друг друга в самых сложных ситуациях.

Качество: WEB-DLRip
Формат: AVI

Видео: 1517 Кбит/сек, 720*400 (16:9), в 25,000 кадров/сек, MPEG-4 Visual (XviD)
Аудио: 192 Кбит/сек, 48,0 КГц, 16 бит, 2 канала, AC-3

Внимание! Раздача ведётся путём добавления новых серий; при каждом добавлении создаётся новый торрент. Чтобы начать докачку новой серии, пользователям необходимо сделать следующее:
(1) остановить скачивание,
(2) удалить старый торрент у себя из клиента (старые серии удалять не надо),
(3) скачать новый торрент и запустить его у себя в клиенте вместо старого, при этом указать клиенту путь в старую папку куда и должно происходить скачивание новых серий.

Ваш клиент при этом должен произвести хеширование (проверку) старой папки (если не производит сам - помогите ему сделать это), и будет докачивать только те серии которых у вас ещё нет. Старые серии при этом не удаляются, а продолжают раздаваться!

Eсли вы уже удалили старые серии, то предотвратить повторную закачку старых серий можно, отжав галочку в соответствующих местах при запуске нового торрента. По возможности, желательно не удалять старые серии как можно дольше чтобы релизёр не столько продолжал раздавать старые серии, а смог сконцентрироваться на новых.
Общее
Полное имя : G:\Papik.S02.WEB-DLRip.25Kuzmich\Papik.s02.e01.WEB-DLRip.25Kuzmich.avi
Формат : AVI
Формат/Информация : Audio Video Interleave
Размер файла : 450 Мбайт
Продолжительность : 36 м. 36 с.
Общий поток : 1718 Кбит/сек
Программа кодирования : VirtualDubMod 1.5.10.3 | www.virtualdub-fr.org || (build 2550/release)
Библиотека кодирования : VirtualDubMod build 2550/release

Видео
Идентификатор : 0
Формат : MPEG-4 Visual
Профиль формата : Advanced Simple@L5
Настройки формата : BVOP1
Параметр BVOP формата : 1
Параметр QPel формата : Нет
Параметр GMC формата : Без точки перехода
Параметр матрицы формата : Default (MPEG)
Идентификатор кодека : XVID
Идентификатор кодека/Подсказка : XviD
Продолжительность : 36 м. 36 с.
Битрейт : 1517 Кбит/сек
Ширина : 720 пикселей
Высота : 400 пикселей
Соотношение сторон : 16:9
Частота кадров : 25,000 кадров/сек
Цветовое пространство : YUV
Субдискретизация насыщенности : 4:2:0
Битовая глубина : 8 бит
Тип развёртки : Прогрессивная
Метод сжатия : С потерями
Бит/(Пиксели*Кадры) : 0.211
Размер потока : 397 Мбайт (88%)
Библиотека кодирования : XviD 73

Аудио
Идентификатор : 1
Формат : AC-3
Формат/Информация : Audio Coding 3
Коммерческое название : Dolby Digital
Идентификатор кодека : 2000
Продолжительность : 36 м. 36 с.
Вид битрейта : Постоянный
Битрейт : 192 Кбит/сек
Каналы : 2 канала
ChannelLayout : L R
Частота : 48,0 КГц
Частота кадров : 31,250 кадров/сек (1536 SPF)
Битовая глубина : 16 бит
Метод сжатия : С потерями
Размер потока : 50,3 Мбайт (11%)
Выравнивание : Разделение по промежуткам
Продолжительность промежутка : 40 мс. (1,00 видеокадр)
Время предзагрузки промежутка : 500 мс.
ServiceKind/String : Complete Main


Скриншоты:
скриншот   скриншот   скриншот   скриншот   скриншот   скриншот   скриншот  
 скриншот  
piratbit.org



Скачать Папик через торрент https://pic1.kartinco.top/new/img/2021-04/01/z8ac5zbdewjmeqlvlnwjs5o76.jpg Скачать фильм Папик через торрент бесплантно в хорошем качестве Описание: В продолжении истории актёр на пенсии Александр Меркулов снова пытается начать новую жизнь. Только теперь не со смены имиджа, а с ... 8.2 10 15
Торрент: Зарегистрирован [2021-04-09 23:23] · скачан: 20 раз
Статус: не проверено
Размер: 7.04 GB
Как cкачать? Как скачать Папик через торрент | UTorrent

% Раздел Тема Автор DL S | L
* Оформление раздач (Наши, Зарубежные Сериалы) [ 16.9 GB ] Папик / 2021 / РУ / WEB-DL piloter Скачать
16 | 15


Последний раз редактировалось: GEKADOL (2021-04-09 23:23), всего редактировалось 5 раз(а)

28-11-2019 20:33  

Отключить всю рекламу на сайте

01-04-2021 13:45 Папик Скачать торрент  

как часто серии выходят?piratbit.org



01-04-2021 22:22 Папик Скачать торрент  

Антонн писал(а):

как часто серии выходят?

По 2 в день.piratbit.org



06-04-2021 03:10 Папик Скачать торрент  

полный игнор сериала от убийц детей и стариковpiratbit.org



08-04-2021 14:39 Папик Скачать торрент  

Чет запаздывает Gekadol с сериями piratbit.org



10-04-2021 10:11 Папик Скачать торрент  

На Украине навалом папиков , а украинки зачем-то едут в сауны Москвы )))piratbit.org



    Дорогой пользователь! Огромная просьба, поблагодарите релизера, оцените раздачу и оставьте свои комментарий, если Вы скачали Папик через торрент бесплатно! Внесите свою лепту в развитие PiratBit!
    Комментировать посты могут только пользователи прошедшие не сложную регистрацию
    Показать сообщения:    

    Папик через торрент
    Скачать бесплатно Папик
    Папик скачать торрент
    Папик смотреть онлайн
    Cкачать фильм Папик бесплатно
    Папик скачать торрент в хорошем качестве
    Папик смотреть онлайн бесплатно в хорошем качестве


    Вы не можете начинать темы
    Вы не можете отвечать на сообщения
    Вы не можете редактировать свои сообщения
    Вы не можете удалять свои сообщения
    Вы не можете голосовать в опросах
    Вы не можете прикреплять файлы к сообщениям
    Вы можете скачивать файлы