1 сезон

1 сезон

iTunes

1

КиноПоиск HD

Кинопоиск HD

iTunes

13

1 сезон

RePack

30

Ultimate

ВАЖНО

ИГРА 18+

pack

RePack

MK11
pack

Легкие деньги

RePack

jed

RePack

fifa19

RePack

RDR2

RePack

NEED FOR SPEED™ PAYBACK

4 сезон

9 сезон

Бесстыжие 9 сезон

Все сериалы

все сериалы на PB.wtf

RePack

FAR CRY 5
  
Magnet ссылка

Годзилла против Конга / Godzilla vs. Kong (Адам Вингард) [2021, Фантастика, боевик, триллер, WEBRip 1080p] [DUB] [Line] + 2x[MVO] (Rus, Ukr) + [AVO] piratbit.org

Годзилла против Конга через торрент piratbit.org

Раздают: 40 [ 1 MB/s ] Качают: 1 [ 0 KB/s ]
Размер: 8.94 GB | Добавлен: 17 д. назад | Торрент скачан:1050 раз
Скачать  

01-04-2021 10:08 Годзилла против Конга Скачать торрент  

Годзилла против Конга / Godzilla vs. Kong


Год выпуска: 2021
Страна: США, Австралия
Жанр: Фантастика, боевик, триллер
Продолжительность: 01:53:09
Перевод №1: Профессиональный (многоголосый) HDRezka Studio
Перевод №2: Дублированный [Line]
Перевод №3: Авторский (одноголосый) Яроцкий
Перевод №4: Профессиональный (многоголосый) HDRezka Studio - Украинский
Субтитры: Русские, английские

Режиссер: Адам Вингард

В ролях: Александр Скарсгард, Милли Бобби Браун, Ребекка Холл, Брайан Тайри Генри, Сюн Огури, Эйса Гонсалес, Джулиан Деннисон, Лэнс Реддик, Кайл Чандлер, Демиан Бишир

Описание: Конг и группа ученых отправляются в опасное путешествие в поисках родного дома гиганта. Среди них девочка Джия, единственная, кто умеет общаться с Конгом. Неожиданно они сталкиваются с разъяренным Годзиллой, разрушающим все на своем пути. Битва двух титанов, спровоцированная неведомыми силами — лишь малая часть тайны, спрятанной в недрах Земли.
rating
скриншот  

Тип релиза: WEBRip 1080p
Контейнер: MKV
Видео: V_MPEGH/ISO, 1920x804, 10.9 Mb/s
Аудио 1: AC3, 6 ch, 448 Kbps - Русский (MVO HDRezka Studio)
Аудио 2: AC3, 2 ch, 256 Kbps - Русский (DUB Line)
Аудио 3: AC3, 6 ch, 640 Kbps - Русский (AVO Яроцкий)
Аудио 4: AC3, 6 ch, 384 Kbps - Украинский (MVO HDRezka Studio)
Аудио 5: E-AC3, 6 ch, 768 Kbps - Английский
Субтитры: Русские (Forced, Full), Украинскиe (Forced), английские
Общее
Уникальный идентификатор: 54367178797318496670701954600090753882 (0x28E6BCDE15F9E47BD610FBEF8E945B5A)
Полное имя: Годзилла против Конга, 2021.WEBRip_1080p.W.mkv
Формат: Matroska
Версия формата: Версия 4
Размер файла: 8,94 Гбайт
Продолжительность: 1 ч. 53 м.
Общий поток: 11,3 Мбит / сек
Дата кодирования: UTC 2021-04-03 11:29:41
Программа кодирования: mkvmerge v23.0.0 ('Невеста сказала нет') 64-битная
Библиотека кодирования: libebml v1.3.6 + libmatroska v1.4.9

Видео
Идентификатор: 1
Формат: AVC
Формат / Информация: Расширенный видеокодек
Формат профиля: High @ L4
Формат настроек: CABAC / 4 Ref Frames
Параметр формата CABAC: Да
Параметр RefFrames формата: 4 кадра
Идентификатор кодека: V_MPEG4 / ISO / AVC
Продолжительность: 1 ч. 53 м.
Вид битрейта: Постоянный
Битрейт: 8 807 Кбит / сек
Номинальный битрейт: 10 000 Кбит / сек
Ширина: 1920 пикселей
Высота: 800 пикселей
Соотношение сторон: 2,40: 1
Режим частоты кадров: Постоянный
Частота кадров: 23,976 (24000/1001) кадра / сек
Цветовое пространство: YUV
Субдискретизация насыщенности: 4: 2: 0
Битовая глубина: 8 бит
Тип развёртки: Прогрессивная
Бит / (Пиксели * Кадры): 0.239
Размер потока: 6,96 Гбайт (78%)
Язык: английский
По умолчанию: Да
Принудительно: Нет
Цветовой диапазон: Limited
Основные цвета: BT.709
Характеристики трансфера: BT.709
Матенты матрицы: BT.709

Аудио # 1
Идентификатор: 2
Формат: AC-3
Формат / Информация: Audio Coding 3
Коммерческое название: Dolby Digital
Идентификатор кодека: A_AC3
Продолжительность: 1 ч. 53 м.
Вид битрейта: Постоянный
Битрейт: 448 Кбит / сек
Каналы: 6 каналов
Расположение каналов: LRC LFE Ls Rs
Частота: 48,0 КГц
Частота кадров: 31 250 кадров / сек (1536 SPF)
Метод сжатия: С потерями
Размер потока: 363 Мбайт (4%)
Заголовок: МВО (HDRezka Studio)
Язык: русский
Вид услуги: Полная основная
По умолчанию: Да
Принудительно: Нет

Аудио # 2
Идентификатор: 3
Формат: AC-3
Формат / Информация: Audio Coding 3
Коммерческое название: Dolby Digital
Идентификатор кодека: A_AC3
Продолжительность: 1 ч. 53 м.
Вид битрейта: Постоянный
Битрейт: 256 Кбит / сек
Каналы: 2 канала
Расположение каналов: LR
Частота: 48,0 КГц
Частота кадров: 31 250 кадров / сек (1536 SPF)
Метод сжатия: С потерями
Размер потока: 207 Мбайт (2%)
Заголовок: DUB Line | КиноПаб
Язык: русский
Вид услуги: Полная основная
По умолчанию: Нет
Принудительно: Нет

Аудио # 3
Идентификатор: 4
Формат: AC-3
Формат / Информация: Audio Coding 3
Коммерческое название: Dolby Digital
Идентификатор кодека: A_AC3
Продолжительность: 1 ч. 53 м.
Вид битрейта: Постоянный
Битрейт: 640 Кбит / сек
Каналы: 6 каналов
Расположение каналов: LRC LFE Ls Rs
Частота: 48,0 КГц
Частота кадров: 31 250 кадров / сек (1536 SPF)
Метод сжатия: С потерями
Размер потока: 518 Мбайт (6%)
Заголовок: AVO_М.Яроцкий
Язык: русский
Вид услуги: Полная основная
По умолчанию: Нет
Принудительно: Нет

Аудио # 4
Идентификатор: 5
Формат: AC-3
Формат / Информация: Audio Coding 3
Коммерческое название: Dolby Digital
Идентификатор кодека: A_AC3
Продолжительность: 1 ч. 53 м.
Вид битрейта: Постоянный
Битрейт: 384 Кбит / сек
Каналы: 6 каналов
Расположение каналов: LRC LFE Ls Rs
Частота: 48,0 КГц
Частота кадров: 31 250 кадров / сек (1536 SPF)
Метод сжатия: С потерями
Размер потока: 311 Мбайт (3%)
Заголовок: МВО (HDRezka Studio)
Язык: украинский
Вид услуги: Полная основная
По умолчанию: Нет
Принудительно: Нет

Аудио # 5
Идентификатор: 6
Формат: E-AC-3 JOC
Формат / Информация: Улучшенный AC-3 с совместным кодированием объектов
Коммерческое название: Dolby Digital Plus с Dolby Atmos.
Идентификатор кодека: A_EAC3
Продолжительность: 1 ч. 53 м.
Вид битрейта: Постоянный
Битрейт: 768 Кбит / сек
Каналы: 6 каналов
Расположение каналов: LRC LFE Ls Rs
Частота: 48,0 КГц
Частота кадров: 31 250 кадров / сек (1536 SPF)
Метод сжатия: С потерями
Размер потока: 622 Мбайт (7%)
Язык: английский
Вид услуги: Полная основная
По умолчанию: Нет
Принудительно: Нет
Индекс сложности: 16
Количество динамических объектов: 15
Количество каналов кровати: 1 канал
Конфигурация канала кровати: LFE

Текст # 1
Идентификатор: 7
Формат: UTF-8
Идентификатор кодека: S_TEXT / UTF8
Идентификатор кодека / Информация: UTF-8 Plain Text
Продолжительность: 1 ч. 44 м.
Битрейт: 7 бит / сек
Количество элементов: 129
Размер потока: 5,38 Кбайт (0%)
Заголовок: Принудительный
Язык: русский
По умолчанию: Да
Принудительно: Нет

Текст # 2
Идентификатор: 8
Формат: UTF-8
Идентификатор кодека: S_TEXT / UTF8
Идентификатор кодека / Информация: UTF-8 Plain Text
Продолжительность: 1 ч. 44 м.
Битрейт: 8 бит / сек
Количество элементов: 114
Размер потока: 6,45 Кбайт (0%)
Заголовок: Принудительный
Язык: украинский
По умолчанию: Нет
Принудительно: Нет

Текст # 3
Идентификатор: 9
Формат: UTF-8
Идентификатор кодека: S_TEXT / UTF8
Идентификатор кодека / Информация: UTF-8 Plain Text
Продолжительность: 1 ч. 44 м.
Битрейт: 67 бит / сек
Количество элементов: 980
Размер потока: 51,5 Кбайт (0%)
Заголовок: Полный
Язык: русский
По умолчанию: Нет
Принудительно: Нет

Текст # 4
Идентификатор: 10
Формат: UTF-8
Идентификатор кодека: S_TEXT / UTF8
Идентификатор кодека / Информация: UTF-8 Plain Text
Продолжительность: 1 ч. 45 м.
Битрейт: 50 бит / сек
Количество элементов: 1415
Размер потока: 39,5 Кбайт (0%)
Заголовок: Полный
Язык: английский
По умолчанию: Нет
Принудительно: Нет
скриншот  скриншот  скриншот  
piratbit.org



Скачать Годзилла против Конга через торрент https://i114.fastpic.ru/big/2021/0331/61/0e29be142dd5f308704a5de5dd616a61.jpg Скачать фильм Годзилла против Конга через торрент бесплантно в хорошем качестве Описание: Конг и группа ученых отправляются в опасное путешествие в поисках родного дома гиганта. Среди них девочка Джия, единственная, кто ... 9.5 10 86
Info! Золотая раздача, скачанное не засчитывается.
Торрент: Зарегистрирован [2021-04-03 13:49] · скачан: 1 050 раз
Статус: T временная
Размер: 8.94 GB
Как cкачать? Как скачать Годзилла против Конга через торрент | UTorrent

% Раздел Тема Автор DL S | L
T Фильмы 2021 [DVDrip, WEB-DLRip, HDrip] (DUB, MVO) [ 2.05 GB ] Годзилла против Конга / Godzilla vs. Kong [2021 WEB-DLRip-AVC] DUB AVO [Line Яроцкий] от MediaBit Lithuania Скачать
24 | 0
T Фильмы 2021 [DVDrip, WEB-DLRip, HDrip] (DUB, MVO) [ 1.46 GB ] Годзилла против Конга / Godzilla vs. Kong [2021 WEB-DLRip] [Line] killermax2013 Скачать
16 | 0
T Фильмы 2021 (Звук TS, Cam, VO, DVO) [ 1.45 GB ] Годзилла против Конга / Godzilla vs. Kong [2021 WEBRip-AVC] VO [feofanio] от MediaBit Lithuania Скачать
6 | 0
Фильмы с авторской озвучкой [ 2.18 GB ] Годзилла против Конга / Godzilla vs. Kong [2021 WEB-DLRip] AVO [М.Яроцкий] Twi7ter Скачать
27 | 34
Фильмы с авторской озвучкой [ 1.46 GB ] Годзилла против Конга / Godzilla vs. Kong [2021 WEB-DLRip] AVO [М.Яроцкий] Twi7ter Скачать
11 | 34
Фильмы без перевода [ 14.76 GB ] Годзилла против Конга / Godzilla vs. Kong [2021 WEBRip 2160p HDR10] [ENG] killermax2013 Скачать
4 | 0


Последний раз редактировалось: killermax2013 (2021-04-03 13:57), всего редактировалось 7 раз(а)

28-11-2019 20:33  

Отключить всю рекламу на сайте

01-04-2021 12:56 Годзилла против Конга Скачать торрент  

я ожидал лучше, говорят мультики глупые, так местами мне этот фильм глупее казался, 6\10 слащаво попкорно синтементально подтирательный
сцен 5, секнд по 5, да реально графоний мочилpiratbit.org



01-04-2021 14:08 Годзилла против Конга Скачать торрент  

Ну нафиг, лучше подожду Годзилла против Киркорова, по любому будет интереснее.piratbit.org
Kkillermax2013 писал(а):




01-04-2021 15:27 Годзилла против Конга Скачать торрент  

А когда "тунец"?piratbit.org
Kkillermax2013 писал(а):

месяца через 2 не раньше



01-04-2021 15:32 Годзилла против Конга Скачать торрент  

Спасибо за оперативность !!!))piratbit.org



01-04-2021 15:55 Годзилла против Конга Скачать торрент  

А когда уже снимут Кащей против черепашек нинзя?piratbit.org



01-04-2021 16:46 Годзилла против Конга Скачать торрент  

сюжет отстой полный,напомнило трансформеров,где клоуны спасают планету,походу тот же самый сценарист писал это.piratbit.org



03-04-2021 14:31 Годзилла против Конга Скачать торрент  

Годзилла против пинг-понга!...Годзилла за большой теннис!... piratbit.org



03-04-2021 18:44 Годзилла против Конга Скачать торрент  

Ребята не вздумайте смотреть этот бред. Спецэффекты в фильме супер. Но вот то что бред полный снят это факт.

Не тратьте своё время.piratbit.org



04-04-2021 15:37 Годзилла против Конга Скачать торрент  

Когда хотели как лучше, но получилось как всегда...piratbit.org



04-04-2021 17:21 Годзилла против Конга Скачать торрент  

полная, не тратьте на это время.piratbit.org



05-04-2021 15:37 Годзилла против Конга Скачать торрент  

Обрыганый фильм, хз за кого болеть. Годзиллу показывали что он норм чувак, драл монстров, конг тоже был показан что он просто абсолютно положительный парень, человеческих девок хочет и вообще монстрам рты рвет, а теперь их пипками столкнули и не понимаешь - а кто паскуда то? В общем, сюжет говно, за графику зелень.piratbit.org



05-04-2021 17:31 Годзилла против Конга Скачать торрент  

почему все Веб рипы по краю в мыле, не в фокусе?piratbit.org



    Дорогой пользователь! Огромная просьба, поблагодарите релизера, оцените раздачу и оставьте свои комментарий, если Вы скачали Годзилла против Конга через торрент бесплатно! Внесите свою лепту в развитие PiratBit!
    Комментировать посты могут только пользователи прошедшие не сложную регистрацию
    Показать сообщения:    

    Годзилла против Конга через торрент
    Скачать бесплатно Годзилла против Конга
    Годзилла против Конга скачать торрент
    Годзилла против Конга смотреть онлайн
    Cкачать фильм Годзилла против Конга бесплатно
    Годзилла против Конга скачать торрент в хорошем качестве
    Годзилла против Конга смотреть онлайн бесплатно в хорошем качестве


    Вы не можете начинать темы
    Вы не можете отвечать на сообщения
    Вы не можете редактировать свои сообщения
    Вы не можете удалять свои сообщения
    Вы не можете голосовать в опросах
    Вы не можете прикреплять файлы к сообщениям
    Вы можете скачивать файлы